<?xml version="1.0" standalone="no"?>
<!DOCTYPE svg PUBLIC "-//W3C//DTD SVG 1.1//EN" "http://www.w3.org/Graphics/SVG/1.1/DTD/svg11.dtd" >
<svg xmlns="http://www.w3.org/2000/svg" xmlns:xlink="http://www.w3.org/1999/xlink" version="1.1">
<metadata>
Created by FontForge 20170731 at Thu Mar  7 12:53:05 2019
 By Aleksey,,,
Copyright 2016 The Rokkit Project Authors (https://github.com/googlefonts/RokkittFont)
</metadata>
<defs>
<font id="Rokkitt-Regular" horiz-adv-x="0" >
  <font-face 
    font-family="Rokkitt"
    font-weight="400"
    font-stretch="normal"
    units-per-em="1000"
    panose-1="0 0 0 0 0 0 0 0 0 0"
    ascent="800"
    descent="-200"
    x-height="393"
    cap-height="563"
    bbox="-200 -236 1207 953"
    underline-thickness="50"
    underline-position="-175"
    unicode-range="U+000D-FB02"
  />
<missing-glyph horiz-adv-x="518" 
d="M40 0v563h438v-563h-438zM100 70h318v423h-318v-423z" />
    <glyph glyph-name="fi" unicode="fi" horiz-adv-x="564" 
d="M43 0v53h68v287h-70v53h70v54q0 60 26 97.5t70 55.5t99 18q47 0 86.5 -12t63.5 -33.5t24 -51.5q0 -21 -12 -33t-34 -12t-35 12t-13 31q0 17 11 26q-12 14 -38.5 22t-52.5 8q-54 0 -87.5 -29.5t-33.5 -99.5v-53h286v-340h68v-53h-213v53h72v287h-213v-287h87v-53h-229z
" />
    <glyph glyph-name="f_f" unicode="ff" horiz-adv-x="571" 
d="M43 0v53h75v287h-77v53h77v84q0 54 28.5 86.5t89.5 32.5q40 0 71.5 -20t35.5 -72l-57 -16q-4 26 -14 41t-34 15q-22 0 -34 -16.5t-12 -51.5v-83h184v84q0 36 13.5 63t39.5 41.5t64 14.5q25 0 48.5 -8t40.5 -28t19 -56l-57 -16q-4 28 -15.5 41.5t-33.5 13.5q-19 0 -32 -16
t-13 -51v-83h96v-53h-96v-287h91v-53h-234v53h69v287h-184v-287h84v-53h-233z" />
    <glyph glyph-name=".notdef" horiz-adv-x="518" 
d="M40 0v563h438v-563h-438zM100 70h318v423h-318v-423z" />
    <glyph glyph-name=".null" 
 />
    <glyph glyph-name="nonmarkingreturn" horiz-adv-x="333" 
 />
    <glyph glyph-name="NULL" 
 />
    <glyph glyph-name="NULL" 
 />
    <glyph glyph-name="CR" unicode="&#xd;" horiz-adv-x="305" 
 />
    <glyph glyph-name="space" unicode=" " horiz-adv-x="305" 
 />
    <glyph glyph-name="exclam" unicode="!" horiz-adv-x="177" 
d="M59 153l-14 264v170h77v-170l-14 -264h-49zM83 -6q-22 0 -37.5 14.5t-15.5 35.5q0 22 15.5 36.5t37.5 14.5q23 0 38.5 -14.5t15.5 -36.5q0 -21 -15.5 -35.5t-38.5 -14.5z" />
    <glyph glyph-name="quotedbl" unicode="&#x22;" horiz-adv-x="309" 
d="M74 420l-20 210h81l-16 -210h-45zM194 420l-20 210h81l-16 -210h-45z" />
    <glyph glyph-name="numbersign" unicode="#" horiz-adv-x="553" 
d="M93 -4l23 176h-81v50h91l20 152h-101v51h111l23 166h59l-23 -166h161l23 166h60l-24 -166h85v-51h-94l-20 -152h104v-50h-114l-23 -176h-60l24 176h-162l-24 -176h-58zM185 222h161l20 152h-161z" />
    <glyph glyph-name="dollar" unicode="$" horiz-adv-x="521" 
d="M222 -89v750h60v-750h-60zM279 -10q-40 0 -74.5 12.5t-60.5 35t-42 52.5h13v-90h-65v190h60q4 -41 25 -73t57 -50.5t84 -18.5q52 0 81 24.5t29 70.5q0 37 -13 57.5t-43 32t-80 19.5l-24 4q-81 14 -130 53.5t-49 110.5q0 50 22 84t62 52t93 18q59 0 104 -26t61 -71h-21v86
h64v-159h-59q-4 24 -17 50t-43 44t-85 18q-52 0 -80 -24.5t-28 -63.5q0 -43 31 -66t90 -34l23 -4q66 -11 109 -30t64.5 -52t21.5 -87q0 -44 -21 -81.5t-61 -60.5t-98 -23z" />
    <glyph glyph-name="percent" unicode="%" horiz-adv-x="714" 
d="M177 291q-39 0 -70 18.5t-49 51t-18 73.5t18 72.5t49 49.5t70 18q60 0 99.5 -39.5t39.5 -100.5q0 -41 -18 -73.5t-49.5 -51t-71.5 -18.5zM177 335q38 1 62 28.5t24 70.5q0 42 -24 69t-62 28q-36 -1 -60.5 -28t-24.5 -69q0 -43 24.5 -70.5t60.5 -28.5zM536 -11
q-39 0 -70 18.5t-49 51t-18 73.5q0 61 39 100.5t98 39.5t98.5 -39.5t39.5 -100.5q0 -41 -18 -73.5t-49 -51t-71 -18.5zM536 34q38 0 62 27.5t24 70.5q0 42 -24 69.5t-62 27.5q-36 0 -60.5 -27.5t-24.5 -69.5q0 -43 24.5 -70.5t60.5 -27.5zM146 -1l373 568h51l-372 -568h-52z
" />
    <glyph glyph-name="ampersand" unicode="&#x26;" horiz-adv-x="625" 
d="M249 -10q-59 0 -104 22.5t-70 61.5t-25 91q0 41 17 73t50 56.5t80 41.5q-30 37 -47 69.5t-17 65.5q0 36 19 63.5t52.5 43t77.5 15.5q42 0 73.5 -15t49.5 -41.5t18 -60.5q0 -50 -32.5 -89.5t-97.5 -68.5l136 -162q13 18 23 40.5t17.5 47t10.5 46.5h115v-56h-67
q-6 -22 -15.5 -45t-21 -44t-24.5 -37l41 -52h87v-56h-128l-45 58q-35 -33 -79 -50.5t-94 -17.5zM260 52q36 0 68 13t57 40l-154 188q-53 -19 -79.5 -50t-26.5 -75q0 -33 17 -59.5t47.5 -41.5t70.5 -15zM260 362q49 22 74.5 49t25.5 61q0 32 -21.5 50.5t-57.5 18.5t-58 -17.5
t-22 -49.5q0 -24 16 -50.5t43 -61.5z" />
    <glyph glyph-name="quotesingle" unicode="'" horiz-adv-x="189" 
d="M74 420l-20 210h81l-16 -210h-45z" />
    <glyph glyph-name="parenleft" unicode="(" horiz-adv-x="277" 
d="M245 -59q-66 26 -110.5 75.5t-66.5 112t-22 127.5q0 66 22 129t66.5 112.5t110.5 75.5l1 -48q-37 -19 -61.5 -60t-37 -95t-12.5 -112t12.5 -112.5t37 -96t61.5 -60.5z" />
    <glyph glyph-name="parenright" unicode=")" horiz-adv-x="277" 
d="M55 -59v48q37 19 61.5 60.5t37 96t12.5 112.5t-12.5 112t-37 95t-61.5 60v48q67 -26 111 -75.5t66.5 -112.5t22.5 -129q0 -65 -22.5 -127.5t-66.5 -112t-111 -75.5z" />
    <glyph glyph-name="asterisk" unicode="*" horiz-adv-x="456" 
d="M134 201l-52 38l126 140l-183 43l19 60l173 -81l-21 188h64l-21 -188l173 81l19 -60l-183 -43l126 -140l-52 -38l-94 164z" />
    <glyph glyph-name="plus" unicode="+" horiz-adv-x="572" 
d="M256 60v193h-186v53h186v193h60v-193h186v-53h-186v-193h-60z" />
    <glyph glyph-name="comma" unicode="," horiz-adv-x="241" 
d="M60 -116v38q30 5 42 21.5t12 56.5h-51v95h98v-80q0 -62 -23 -96.5t-78 -34.5z" />
    <glyph glyph-name="hyphen" unicode="-" horiz-adv-x="347" 
d="M54 206v56h239v-56h-239z" />
    <glyph glyph-name="period" unicode="." horiz-adv-x="234" 
d="M60 0v94h94v-94h-94z" />
    <glyph glyph-name="slash" unicode="/" horiz-adv-x="323" 
d="M10 -140l280 733h63l-280 -733h-63z" />
    <glyph glyph-name="zero" unicode="0" horiz-adv-x="536" 
d="M268 -11q-104 0 -156 76t-52 219q0 134 52 211.5t156 77.5t156 -77t52 -212q0 -143 -52 -219t-156 -76zM268 42q65 0 99.5 62t34.5 180q0 116 -34.5 176t-99.5 60t-99.5 -60t-34.5 -176q0 -118 34.5 -180t99.5 -62z" />
    <glyph glyph-name="one" unicode="1" horiz-adv-x="312" 
d="M47 0v53h84v445l-85 -14l-2 53l159 26v-510h79v-53h-235z" />
    <glyph glyph-name="two" unicode="2" horiz-adv-x="457" 
d="M40 0v50l162 164q46 47 74.5 80t42 62.5t13.5 64.5q0 40 -24 69.5t-78 29.5q-51 0 -81 -28.5t-30 -83.5q0 -14 2 -29.5t6 -32.5h-68q-4 16 -6.5 32.5t-2.5 30.5q0 50 23 86.5t66 57t101 20.5q78 0 122 -40.5t44 -103.5q0 -42 -19 -79.5t-54.5 -77t-85.5 -89.5l-158 -159
l-13 32h268v107h66l1 -163h-371z" />
    <glyph glyph-name="three" unicode="3" horiz-adv-x="478" 
d="M238 -10q-73 0 -125 31t-83 86l59 33q24 -43 61 -67.5t91 -24.5q58 0 90.5 27.5t32.5 75.5q0 59 -43 87t-134 28v57q83 0 126 26t43 78q0 40 -29 64t-84 24q-52 0 -89 -26t-53 -71l-60 28q17 40 46 68t69 43.5t88 15.5q83 0 132.5 -39t49.5 -104q0 -40 -20.5 -71t-56 -49
t-79.5 -19v11q73 0 120.5 -41t47.5 -110q0 -50 -24 -86t-69 -55.5t-107 -19.5z" />
    <glyph glyph-name="four" unicode="4" horiz-adv-x="453" 
d="M179 0v53h88v95h-260l-7 50l266 365h69v-362h88v-53h-88v-95h68v-53h-224zM67 201h200v273z" />
    <glyph glyph-name="five" unicode="5" horiz-adv-x="491" 
d="M245 -11q-67 0 -117 26t-88 68l47 48q30 -35 68.5 -57.5t88.5 -22.5q64 0 99 33.5t35 87.5q0 56 -33 89t-93 33q-37 0 -69.5 -14t-57.5 -39l-59 24l7 298h346v-144h-70v85h-213l-7 -239l-19 29q26 31 67.5 47.5t87.5 16.5q92 0 139.5 -52t47.5 -132q0 -58 -25.5 -99.5
t-72 -63.5t-109.5 -22z" />
    <glyph glyph-name="six" unicode="6" horiz-adv-x="460" 
d="M235 -10q-57 0 -101.5 23.5t-70 66t-25.5 98.5q0 41 8.5 74t30 73t61.5 100l123 186l59 -40l-199 -293l-7 14q13 18 33.5 32.5t48 23.5t60.5 9q46 0 84.5 -22t62 -62t23.5 -94q0 -55 -25 -97.5t-68 -67t-98 -24.5zM235 47q57 0 89.5 36.5t32.5 93.5q0 56 -31 90.5
t-86 34.5q-34 0 -63 -15t-47 -43.5t-18 -69.5q0 -52 31 -89.5t92 -37.5z" />
    <glyph glyph-name="seven" unicode="7" horiz-adv-x="434" 
d="M128 0l189 507h-233v-96h-72v152h382v-51l-194 -512h-72z" />
    <glyph glyph-name="eight" unicode="8" horiz-adv-x="464" 
d="M233 -11q-66 0 -111.5 21.5t-68.5 58t-23 81.5q0 52 29.5 89t81.5 55q-50 22 -71.5 55t-21.5 77t22.5 77t64 51.5t97.5 18.5q57 0 98.5 -18t64 -51t22.5 -78t-22.5 -79.5t-72.5 -53.5q56 -16 84 -53t28 -89q0 -46 -23.5 -83t-68.5 -58t-109 -21zM233 46q56 0 88.5 29
t32.5 78q0 56 -42.5 81t-124.5 38q-15 -4 -33 -19.5t-31 -40.5t-13 -58q0 -49 33 -78.5t90 -29.5zM274 313q12 4 27.5 17.5t27.5 36.5t12 53q0 44 -28 70.5t-81 26.5q-51 0 -79.5 -26.5t-28.5 -70.5q0 -50 40 -74.5t110 -32.5z" />
    <glyph glyph-name="nine" unicode="9" horiz-adv-x="460" 
d="M199 -47l-59 40l199 293l7 -14q-12 -18 -33 -32.5t-48 -23.5t-61 -9q-46 0 -84.5 22t-62 62.5t-23.5 93.5q0 55 25 97.5t68 67t98 24.5q57 0 101.5 -23.5t70 -66t25.5 -98.5q0 -40 -8.5 -73.5t-30 -73t-61.5 -100.5zM220 262q34 0 63 15t47 43.5t18 69.5q0 53 -30.5 90
t-92.5 37q-57 0 -89.5 -36.5t-32.5 -93.5q0 -56 31 -90.5t86 -34.5z" />
    <glyph glyph-name="colon" unicode=":" horiz-adv-x="234" 
d="M60 0v94h94v-94h-94zM60 299v94h94v-94h-94z" />
    <glyph glyph-name="semicolon" unicode=";" horiz-adv-x="241" 
d="M60 -116v38q30 5 42 21.5t12 56.5h-51v95h98v-80q0 -62 -23 -96.5t-78 -34.5zM60 299v94h94v-94h-94z" />
    <glyph glyph-name="less" unicode="&#x3c;" horiz-adv-x="513" 
d="M463 68l-393 190v50l393 190v-60l-330 -155l330 -155v-60z" />
    <glyph glyph-name="equal" unicode="=" horiz-adv-x="551" 
d="M70 341v53h411v-53h-411zM70 175v53h411v-53h-411z" />
    <glyph glyph-name="greater" unicode="&#x3e;" horiz-adv-x="513" 
d="M50 68l393 190v50l-393 190v-60l330 -155l-330 -155v-60z" />
    <glyph glyph-name="question" unicode="?" horiz-adv-x="383" 
d="M134 152v6q0 38 9.5 64.5t27 49.5t42.5 51q32 36 46 64.5t14 63.5q0 41 -22.5 62t-57.5 21q-40 0 -62.5 -23.5t-24.5 -67.5h-84q3 50 27 83t61.5 50t81.5 17q77 0 122.5 -39.5t45.5 -100.5q0 -45 -24 -78.5t-65 -75.5q-24 -25 -37 -44t-18 -41t-5 -56v-6h-77zM172 -7
q-22 0 -38 14.5t-16 36.5t16 36.5t38 14.5q23 0 39 -14.5t16 -36.5t-16 -36.5t-39 -14.5z" />
    <glyph glyph-name="at" unicode="@" horiz-adv-x="708" 
d="M383 -26q-84 0 -146.5 25t-103 67t-60.5 95t-20 110q0 59 21.5 116t63 103t102 73.5t139.5 27.5q73 0 125 -21.5t84.5 -58t47.5 -81t15 -91.5q0 -46 -15 -89t-40.5 -76.5t-56 -50t-61.5 -10.5q-16 3 -27 12t-15 26.5t1 44.5q-15 -35 -43.5 -60.5t-72.5 -25.5
q-33 0 -62.5 17t-48 50t-18.5 81t19.5 94.5t57.5 77t95 30.5q41 0 68.5 -25t29.5 -60l15 77h51l-48 -221q-8 -40 -5.5 -60t12.5 -23q17 -6 37.5 6t40 38t32 63.5t12.5 82.5q0 54 -26.5 101.5t-78 77t-128.5 29.5t-138 -35.5t-96 -98t-35 -142.5q0 -76 32.5 -132.5t94 -88
t149.5 -31.5q55 0 100 13t80 39l27 -33q-40 -31 -90.5 -47t-116.5 -16zM330 153q33 0 58.5 22t40.5 61t15 88q0 44 -23 67.5t-62 23.5q-35 0 -60.5 -23.5t-39 -59.5t-13.5 -75q0 -43 20.5 -73.5t63.5 -30.5z" />
    <glyph glyph-name="A" unicode="A" horiz-adv-x="675" 
d="M28 0v53h72l163 457h-63v53h275v-53h-65l168 -457h68v-53h-229v53h75l-57 164h-204l-56 -164h75v-53h-222zM247 270h172l-82 239h-6z" />
    <glyph glyph-name="B" unicode="B" horiz-adv-x="580" 
d="M39 0v53h78v457h-78v53h279q94 0 143.5 -35.5t49.5 -104.5q0 -46 -23.5 -78t-61.5 -45q38 -9 63.5 -29.5t38.5 -49t13 -62.5q0 -40 -19 -76.5t-63.5 -59.5t-119.5 -23h-300zM199 53h126q71 0 102 29t31 80q0 47 -33 76.5t-103 29.5h-123v-215zM199 323h114q62 0 89.5 26
t27.5 71q0 50 -32 70t-103 20h-96v-187z" />
    <glyph glyph-name="C" unicode="C" horiz-adv-x="665" 
d="M344 -11q-66 0 -120 21.5t-93.5 60.5t-60.5 92.5t-21 118.5q0 84 36.5 150t103 103.5t156.5 37.5q54 0 97.5 -16.5t73 -46.5t42.5 -69h-22v122h60v-170l-54 -2q-31 65 -78.5 93.5t-114.5 28.5t-116 -30.5t-75.5 -82.5t-26.5 -117q0 -53 16.5 -96t46 -74t69 -47.5
t86.5 -16.5q42 0 81 13t70 42.5t48 77.5l60 -30q-24 -61 -64 -96.5t-91.5 -50.5t-108.5 -16z" />
    <glyph glyph-name="D" unicode="D" horiz-adv-x="684" 
d="M40 0v53h78v457h-78v53h306q74 0 128 -23.5t90 -63t53.5 -89t17.5 -100.5q0 -62 -18 -114.5t-54 -91t-90 -60t-126 -21.5h-307zM200 53h139q56 0 96.5 18t66 49.5t37.5 74t12 90.5q0 43 -12.5 83t-38 72t-65 51t-93.5 19h-142v-457z" />
    <glyph glyph-name="E" unicode="E" horiz-adv-x="582" 
d="M39 0v53h78v457h-78v53h490v-167h-63v114h-267v-191h175v66h41v-188h-41v67h-175v-211h272v117h63v-170h-495z" />
    <glyph glyph-name="F" unicode="F" horiz-adv-x="542" 
d="M39 0v53h78v457h-78v53h481v-171h-63v118h-258v-189h170v61h42v-183h-42v65h-170v-211h78v-53h-238z" />
    <glyph glyph-name="G" unicode="G" horiz-adv-x="684" 
d="M356 -10q-97 0 -166 37.5t-105.5 104t-36.5 151.5q0 87 39 152t108 101.5t159 36.5q83 0 138.5 -35t84.5 -91h-30v116h65v-174h-58q-27 61 -78 93t-119 32t-117.5 -27.5t-76.5 -78t-27 -120.5q0 -73 27 -126.5t77.5 -82.5t118.5 -29q42 1 78 12t63.5 33t43 57t15.5 83
l45 -7h-164v56h199v-30q0 -60 -18.5 -109t-54.5 -83.5t-89 -53t-121 -18.5z" />
    <glyph glyph-name="H" unicode="H" horiz-adv-x="697" 
d="M39 0v53h78v457h-78v53h238v-53h-78v-192h300v192h-79v53h238v-53h-78v-457h78v-53h-238v53h79v208h-300v-208h78v-53h-238z" />
    <glyph glyph-name="I" unicode="I" horiz-adv-x="339" 
d="M50 0v53h78v457h-78v53h239v-53h-79v-457h79v-53h-239z" />
    <glyph glyph-name="J" unicode="J" horiz-adv-x="326" 
d="M33 -106v64h60q37 0 47 22.5t10 59.5v470h-77v53h231v-53h-73v-469q0 -49 -12 -81.5t-39.5 -49t-73.5 -16.5h-73z" />
    <glyph glyph-name="K" unicode="K" horiz-adv-x="633" 
d="M39 0v53h78v457h-78v53h238v-53h-78v-215l232 215h-64v53h233v-53h-74l-244 -226l248 -231h75v-53h-241v53h66l-231 214v-214h78v-53h-238z" />
    <glyph glyph-name="L" unicode="L" horiz-adv-x="525" 
d="M39 0v53h78v457h-78v53h238v-53h-78v-457h234v173h66v-226h-460z" />
    <glyph glyph-name="M" unicode="M" horiz-adv-x="824" 
d="M40 0v53h76v457h-76v53h191l184 -395l175 395h194v-53h-76v-457h76v-53h-227v53h73v443l-212 -467h-26l-215 467v-443h73v-53h-210z" />
    <glyph glyph-name="N" unicode="N" horiz-adv-x="704" 
d="M41 0v53h80v457h-80v53h174l322 -455v402h-80v53h221v-53h-78v-510h-81l-336 479v-426h80v-53h-222z" />
    <glyph glyph-name="O" unicode="O" horiz-adv-x="709" 
d="M354 -11q-69 0 -125.5 23t-96.5 63.5t-61.5 93t-21.5 111.5t21.5 112t61.5 93.5t96.5 64t125.5 23.5t125.5 -23.5t96.5 -64t61.5 -93.5t21.5 -112t-21.5 -111.5t-61.5 -93t-96 -63.5t-126 -23zM354 49q51 0 91.5 18t69 50t43 73.5t14.5 89.5t-14.5 90.5t-43 74.5
t-69 50.5t-91.5 18.5q-52 0 -92 -18.5t-68 -51t-42.5 -75t-14.5 -90.5t14.5 -89.5t42.5 -73.5t68 -49.5t92 -17.5z" />
    <glyph glyph-name="P" unicode="P" horiz-adv-x="563" 
d="M39 0v53h78v457h-78v53h278q103 0 157 -41t54 -119q0 -82 -55.5 -126t-160.5 -44h-75v53h72q65 0 100 30t35 86q0 53 -30.5 80.5t-87.5 27.5h-127v-457h78v-53h-238z" />
    <glyph glyph-name="Q" unicode="Q" horiz-adv-x="706" 
d="M525 -134q-61 0 -110.5 33.5t-87.5 91.5q-64 4 -115.5 28.5t-87.5 64t-55.5 90t-19.5 106.5q0 59 21.5 112t61.5 93.5t96.5 64t125.5 23.5t125.5 -23.5t96.5 -64t61.5 -93.5t21.5 -112q0 -54 -18 -103t-52 -88t-82 -64.5t-109 -32.5q26 -30 54.5 -51t72.5 -21q13 0 27 2
t30 6l1 -53q-15 -4 -29.5 -6.5t-28.5 -2.5zM354 49q51 0 91.5 18t69 50t43 73.5t14.5 89.5t-14.5 90.5t-43 74.5t-69 50.5t-91.5 18.5q-52 0 -92 -18.5t-68 -51t-42.5 -75t-14.5 -90.5t14.5 -89.5t42.5 -73.5t68 -49.5t92 -17.5z" />
    <glyph glyph-name="R" unicode="R" horiz-adv-x="619" 
d="M39 0v53h78v457h-78v53h296q59 0 102 -16.5t66 -49t23 -81.5q0 -39 -14.5 -70t-46.5 -51.5t-84 -28.5l129 -213h83v-53h-139l-151 258h-69v55h88q49 0 75.5 15.5t37 39t10.5 47.5q0 26 -11.5 47.5t-35.5 34.5t-62 13h-137v-457h78v-53h-238z" />
    <glyph glyph-name="S" unicode="S" horiz-adv-x="522" 
d="M300 -10q-40 0 -74.5 12.5t-60.5 35t-42 52.5h13v-90h-65v190h60q4 -41 25 -73t57 -50.5t84 -18.5q52 0 81 24.5t29 70.5q0 37 -13 57.5t-43 32t-80 19.5l-24 4q-81 14 -130 53.5t-49 110.5q0 50 22 84t62 52t93 18q59 0 104 -26t61 -71h-21v86h64v-159h-59q-4 24 -17 50
t-43 44t-85 18q-52 0 -80 -24.5t-28 -63.5q0 -43 31 -66t90 -34l23 -4q66 -11 109 -30t64.5 -52t21.5 -87q0 -44 -21 -81.5t-61 -60.5t-98 -23z" />
    <glyph glyph-name="T" unicode="T" horiz-adv-x="559" 
d="M162 0v53h78v457h-154v-143h-61v196h508v-196h-61v143h-151v-457h78v-53h-237z" />
    <glyph glyph-name="U" unicode="U" horiz-adv-x="670" 
d="M337 -10q-84 0 -135.5 28t-75.5 76.5t-24 109.5v306h-75v53h231v-53h-75v-317q0 -44 18.5 -76.5t53.5 -49.5t84 -17q53 0 90 17t56.5 49.5t19.5 77.5v316h-74v53h219v-53h-76v-313q0 -70 -30.5 -115.5t-83.5 -68.5t-123 -23z" />
    <glyph glyph-name="V" unicode="V" horiz-adv-x="646" 
d="M289 0l-202 510h-71v53h229v-53h-74l159 -421l157 421h-72v53h214v-53h-69l-200 -510h-71z" />
    <glyph glyph-name="W" unicode="W" horiz-adv-x="922" 
d="M253 0l-160 510h-69v53h220v-53h-73l122 -406l145 449h59l146 -449l119 406h-73v53h210v-53h-70l-155 -510h-70l-141 426l-140 -426h-70z" />
    <glyph glyph-name="X" unicode="X" horiz-adv-x="637" 
d="M30 0v50h78l165 238l-159 224h-77v51h231v-51h-68l123 -178l121 178h-69v51h219v-51h-77l-158 -223l169 -239h79v-50h-236v50h70l-130 193l-129 -193h71v-50h-223z" />
    <glyph glyph-name="Y" unicode="Y" horiz-adv-x="632" 
d="M195 0v53h82v188l-188 269h-75v53h234v-53h-71l148 -216l143 216h-72v53h222v-53h-77l-183 -268v-189h83v-53h-246z" />
    <glyph glyph-name="Z" unicode="Z" horiz-adv-x="576" 
d="M62 0v57l355 453h-280v-133h-60v186h439v-51l-358 -459h305v142h60v-195h-461z" />
    <glyph glyph-name="bracketleft" unicode="[" horiz-adv-x="282" 
d="M83 -85v692h163v-56h-83v-580h83v-56h-163z" />
    <glyph glyph-name="backslash" unicode="\" horiz-adv-x="315" 
d="M254 -140l-230 733h61l230 -733h-61z" />
    <glyph glyph-name="bracketright" unicode="]" horiz-adv-x="281" 
d="M35 -85v56h83v580h-83v56h163v-692h-163z" />
    <glyph glyph-name="asciicircum" unicode="^" horiz-adv-x="452" 
d="M37 322l156 288h68l154 -288h-68l-119 228l-123 -228h-68z" />
    <glyph glyph-name="underscore" unicode="_" horiz-adv-x="431" 
d="M6 -79v41h419v-41h-419z" />
    <glyph glyph-name="grave" unicode="`" horiz-adv-x="337" 
d="M190 477l-90 145h84l53 -145h-47z" />
    <glyph glyph-name="a" unicode="a" horiz-adv-x="456" 
d="M174 -11q-61 0 -98 34t-37 83q0 45 21.5 72t57.5 39t79 12q34 0 69.5 -5.5t69.5 -14.5l-30 -5v53q0 47 -25 69t-68 22q-28 0 -65.5 -9.5t-69.5 -26.5l-22 48q35 22 79 32.5t79 10.5q52 0 89 -17t56.5 -48.5t19.5 -73.5v-211h62v-53h-127l-6 56h28q-39 -34 -76 -50.5
t-86 -16.5zM185 40q37 0 74 16t77 49l-30 -36v116l23 -18q-26 8 -59 13t-68 5t-64 -15.5t-29 -59.5q0 -30 20 -50t56 -20z" />
    <glyph glyph-name="b" unicode="b" horiz-adv-x="522" 
d="M172 573v-235h-24q32 32 75 48.5t83 16.5q53 0 96.5 -23t69 -68t25.5 -110q0 -67 -28.5 -114.5t-74.5 -72.5t-101 -25q-43 0 -79 16t-63 49l21 -10v-45h-147v53h73v468h-71v52h145zM286 346q-34 0 -71 -16.5t-68 -50.5l25 40v-254l-23 41q26 -28 61.5 -44.5t69.5 -16.5
q59 0 99.5 38.5t40.5 112.5q0 72 -38 111t-96 39z" />
    <glyph glyph-name="c" unicode="c" horiz-adv-x="469" 
d="M240 -10q-62 0 -110.5 27t-76 74t-27.5 108t26.5 107t73 72t106.5 26q58 0 96 -26t48 -64h-14v81h62v-141h-56q-9 43 -40.5 67.5t-78.5 24.5q-43 0 -76 -18.5t-51.5 -51.5t-18.5 -75q0 -45 18.5 -79.5t51 -54t74.5 -19.5q53 0 85.5 20.5t59.5 51.5l31 -45
q-29 -38 -75 -61.5t-108 -23.5z" />
    <glyph glyph-name="d" unicode="d" horiz-adv-x="513" 
d="M229 -11q-54 0 -99.5 24.5t-73.5 71.5t-28 112q0 67 26.5 112.5t70.5 69.5t96 24q42 0 83.5 -15.5t73.5 -43.5l-24 -9v186h-70v52h144v-520h62v-53h-136v52l23 -4q-29 -28 -65.5 -43.5t-82.5 -15.5zM245 45q39 0 72.5 15t61.5 40l-25 -34v260l25 -36q-31 27 -69.5 42
t-73.5 15q-38 0 -67.5 -18t-46.5 -52.5t-17 -85.5q0 -47 19 -79.5t50.5 -49.5t70.5 -17z" />
    <glyph glyph-name="e" unicode="e" horiz-adv-x="461" 
d="M247 -12q-62 0 -112.5 26t-80 73t-29.5 109q0 64 28 110.5t75 72t105 25.5q60 0 103.5 -25t66.5 -71t23 -108v-19h-336l1 46h262q0 39 -15.5 66.5t-42.5 42t-62 14.5q-37 0 -67 -17.5t-47.5 -50t-17.5 -78.5q0 -49 18 -84.5t50.5 -55t74.5 -19.5q45 0 83 18t66 45l26 -45
q-27 -31 -70 -53t-102 -22z" />
    <glyph glyph-name="f" unicode="f" horiz-adv-x="316" 
d="M41 0v53h78v287h-77v53h77v84q0 36 12.5 63t39 41.5t66.5 14.5q41 0 73 -20t36 -72l-57 -16q-4 26 -14.5 41t-34.5 15q-22 0 -34.5 -16.5t-12.5 -51.5v-83h120v-53h-120v-287h101v-53h-253z" />
    <glyph glyph-name="g" unicode="g" horiz-adv-x="513" 
d="M235 -188q-35 0 -73 6.5t-75 17.5l15 58q35 -10 68.5 -16.5t62.5 -6.5q61 0 95.5 28t34.5 87v70l23 4q-30 -31 -71.5 -47t-82.5 -16q-55 0 -101 24t-73 69.5t-27 109.5q0 66 26.5 111t72 68t100.5 23q40 0 84 -17t68 -46h-20v54h141v-53h-66v-349q0 -64 -26.5 -103.5
t-72 -57.5t-103.5 -18zM239 348q-38 0 -67.5 -17.5t-46.5 -51.5t-17 -84q0 -46 18.5 -78t50 -48.5t70.5 -16.5q35 0 73.5 15.5t66.5 43.5l-24 -37l-1 247l25 -32q-31 26 -71 42.5t-77 16.5z" />
    <glyph glyph-name="h" unicode="h" horiz-adv-x="521" 
d="M12 0v53h73v468h-72v52h146v-238l-27 -5q43 32 86 52.5t89 20.5q54 0 92 -33.5t38 -97.5v-219h72v-53h-211v53h65v205q0 41 -19.5 64t-54.5 23q-38 0 -79 -18.5t-76 -45.5l25 36v-264h64v-53h-211z" />
    <glyph glyph-name="i" unicode="i" horiz-adv-x="267" 
d="M22 0v53h76v287h-75v53h148v-340h71v-53h-220zM125 479q-22 0 -38 14.5t-16 36.5t16 36.5t38 14.5q23 0 38.5 -14.5t15.5 -36.5t-15.5 -36.5t-38.5 -14.5z" />
    <glyph glyph-name="j" unicode="j" horiz-adv-x="249" 
d="M5 -152v58h42q41 0 53 19.5t12 60.5v354h-80v53h155v-389q0 -44 -8.5 -79.5t-37.5 -56t-93 -20.5h-43zM134 479q-22 0 -38 15t-16 37q0 21 16 35.5t38 14.5q23 0 38.5 -14.5t15.5 -35.5q0 -22 -15.5 -37t-38.5 -15z" />
    <glyph glyph-name="k" unicode="k" horiz-adv-x="498" 
d="M26 0v53h74v468h-72v52h146v-363l170 130h-73v53h209v-53h-60l-170 -135l154 -152h78v-53h-115l-193 193v-140h64v-53h-212z" />
    <glyph glyph-name="l" unicode="l" horiz-adv-x="260" 
d="M27 0v53h73v468h-71v52h145v-520h64v-53h-211z" />
    <glyph glyph-name="m" unicode="m" horiz-adv-x="787" 
d="M22 0v53h76v287h-76v53h149v-49l-27 -8q41 30 83.5 48.5t83.5 18.5q61 0 95 -37.5t34 -95.5v-217h72v-53h-211v53h66v205q0 41 -20 64t-55 23q-33 0 -72.5 -16t-77.5 -42l29 29v-263h71v-53h-220zM574 0v53h66v205q0 41 -20 64t-55 23q-34 0 -69.5 -14.5t-67.5 -37.5
l-15 41q42 30 83 49.5t88 19.5q53 0 91 -33.5t38 -97.5v-219h72v-53h-211z" />
    <glyph glyph-name="n" unicode="n" horiz-adv-x="517" 
d="M22 0v53h76v287h-76v53h149v-54l-28 -3q42 29 84 48t86 19q54 0 91.5 -33.5t37.5 -97.5v-219h73v-53h-211v53h65v205q0 41 -20 64t-55 23q-36 0 -73 -16t-79 -44l29 32v-264h71v-53h-220z" />
    <glyph glyph-name="o" unicode="o" horiz-adv-x="476" 
d="M237 -12q-63 0 -111 26t-74.5 73t-26.5 110t26.5 109.5t74.5 72t111 25.5q64 0 112 -25.5t75 -72t27 -108.5q0 -63 -27 -110t-75 -73.5t-112 -26.5zM237 46q42 0 73 19t48 53t17 80q0 45 -17 78t-48 51.5t-73 18.5q-41 0 -71.5 -18.5t-47.5 -52t-17 -78.5t17 -79
t47.5 -53t71.5 -19z" />
    <glyph glyph-name="p" unicode="p" horiz-adv-x="512" 
d="M19 -156v53h71v443h-69v53h138l1 -45l-22 -11q30 31 71.5 48.5t84.5 17.5q53 0 96.5 -23t69 -68t25.5 -110q0 -67 -28 -114.5t-74.5 -72.5t-100.5 -25q-30 0 -56.5 8t-46.5 20.5t-30 28.5l15 3l-1 -153h77v-53h-221zM269 45q59 0 99 38.5t40 112.5q0 72 -38 111t-96 39
q-18 0 -43 -6.5t-50 -20.5t-42 -37l24 42l1 -251l-23 31q26 -28 60 -43.5t68 -15.5z" />
    <glyph glyph-name="q" unicode="q" horiz-adv-x="530" 
d="M288 -161v56h77v164l23 -1q-31 -33 -74.5 -51t-84.5 -18q-54 0 -99.5 24.5t-73.5 71.5t-28 112q0 67 26.5 112.5t70.5 69.5t96 24q45 0 90 -18t76 -50l-22 8l1 50h142v-53h-69v-445h70v-56h-221zM244 45q37 0 75.5 17t69.5 46l-24 -33v244l25 -37q-34 31 -75.5 48
t-79.5 17q-37 0 -67 -18t-47 -52.5t-17 -85.5q0 -47 19 -79.5t50.5 -49.5t70.5 -17z" />
    <glyph glyph-name="r" unicode="r" horiz-adv-x="386" 
d="M35 0v53h76v287h-76v53h149v-117l-14 2q11 45 28.5 71t40 37.5t46.5 11.5q20 0 40 -5t40 -15l-18 -67q-17 11 -34 16.5t-35 5.5q-38 0 -65.5 -31.5t-27.5 -90.5l-1 -158h70v-53h-219z" />
    <glyph glyph-name="s" unicode="s" horiz-adv-x="432" 
d="M244 -10q-31 0 -59.5 8t-49.5 22t-32 33l15 -9v-44h-58v136h52l6 -65l-14 47q11 -37 49.5 -57t80.5 -20q38 0 63.5 15t25.5 42q0 32 -21.5 44.5t-68.5 22.5l-55 12q-55 14 -87 37.5t-32 78.5q0 53 41.5 81.5t103.5 28.5q24 0 50.5 -6.5t48.5 -19.5t31 -32l-15 5v45h59
v-135h-52l-13 95l17 -66q-4 18 -22.5 31.5t-43 21.5t-48.5 8q-32 0 -57.5 -13t-25.5 -42q0 -22 17.5 -34t57.5 -22l51 -11q38 -9 68.5 -21.5t48.5 -36t18 -66.5q0 -39 -21.5 -64.5t-56 -37.5t-72.5 -12z" />
    <glyph glyph-name="t" unicode="t" horiz-adv-x="301" 
d="M199 0q-56 0 -85 28.5t-29 87.5v224h-65v53h65v134l74 29v-163h104v-53h-104v-220q0 -37 12 -52t41 -15h60v-53h-73z" />
    <glyph glyph-name="u" unicode="u" horiz-adv-x="510" 
d="M208 -10q-46 0 -75 18t-42.5 48t-13.5 66v218h-66v53h140v-263q0 -37 18 -59t56 -22q44 0 81 21t70 58l-23 -39v251h-71v53h144v-340h73v-53h-144l-3 65l26 5q-39 -37 -81.5 -58.5t-88.5 -21.5z" />
    <glyph glyph-name="v" unicode="v" horiz-adv-x="514" 
d="M224 0l-150 340h-67v53h210v-53h-64l110 -264l109 264h-63v53h198v-53h-63l-153 -340h-67z" />
    <glyph glyph-name="w" unicode="w" horiz-adv-x="715" 
d="M185 0l-124 340h-52v53h178v-53h-54l93 -267l93 267h-56v53h193v-53h-57l97 -268l86 268h-55v53h177v-53h-55l-118 -340h-72l-101 279l-101 -279h-72z" />
    <glyph glyph-name="x" unicode="x" horiz-adv-x="504" 
d="M24 0v53h59l131 148l-124 139h-64v53h198v-53h-59l90 -104l90 104h-59v53h197v-53h-70l-121 -136l134 -151h59v-53h-201v53h67l-101 112l-97 -112h61v-53h-190z" />
    <glyph glyph-name="y" unicode="y" horiz-adv-x="519" 
d="M101 -159v60h45q26 0 42 4t27.5 18t21.5 44l21 58h-31l-146 315h-73v53h206v-53h-58l118 -267l105 267h-68v53h205v-53h-64l-146 -363q-18 -46 -33.5 -76t-42.5 -45t-78 -15h-51z" />
    <glyph glyph-name="z" unicode="z" horiz-adv-x="438" 
d="M51 0v52l253 290h-192v-81h-56v132h334v-55l-253 -288h201v90h58v-140h-345z" />
    <glyph glyph-name="braceleft" unicode="{" horiz-adv-x="283" 
d="M222 -65q-43 0 -66.5 12.5t-34 37t-12.5 59.5t-2 79q0 43 -4.5 71t-20.5 42t-51 14v56q34 0 50 14.5t21 43t5 70.5q0 43 2 77.5t12 59t33.5 37.5t66.5 13h37v-51q-36 0 -55 -6t-25.5 -24t-6.5 -56q0 -54 -2.5 -90t-9 -58t-20 -35.5t-36.5 -22.5q20 -9 33 -21.5
t20.5 -32.5t10.5 -51.5t3 -78.5q0 -48 4.5 -71.5t23 -30.5t60.5 -7v-50h-36z" />
    <glyph glyph-name="bar" unicode="|" horiz-adv-x="141" 
d="M40 -140v733h61v-733h-61z" />
    <glyph glyph-name="braceright" unicode="}" horiz-adv-x="284" 
d="M43 -65v50q42 0 60.5 7t23 30t4.5 69q0 48 3 80t10.5 52.5t20.5 33t34 21.5q-23 9 -36.5 22.5t-20.5 35.5t-9.5 58t-2.5 90q0 38 -6.5 56t-25 24t-55.5 6v51h37q42 0 65.5 -13t34 -37.5t12.5 -58.5t2 -77q0 -42 5 -71t21 -43.5t50 -14.5v-56q-34 0 -50 -14t-21 -42
t-5 -71q0 -44 -2 -79t-12.5 -59.5t-34 -37t-65.5 -12.5h-37z" />
    <glyph glyph-name="asciitilde" unicode="~" horiz-adv-x="525" 
d="M352 229q-32 0 -62 14t-58 28t-56 14q-19 0 -31 -10t-14 -33h-61q3 33 17 55t36.5 33t49.5 11q36 0 65.5 -14t56.5 -28t54 -14q20 0 31 11t14 32h61q-3 -32 -17 -54t-36 -33.5t-50 -11.5z" />
    <glyph glyph-name="DEL" horiz-adv-x="293" 
 />
    <glyph glyph-name="uni00A0" unicode="&#xa0;" horiz-adv-x="305" 
 />
    <glyph glyph-name="exclamdown" unicode="&#xa1;" horiz-adv-x="161" 
d="M63 284l-14 -264v-170h77v170l-14 264h-49zM87 443q-22 0 -37.5 -14.5t-15.5 -35.5q0 -22 15.5 -36.5t37.5 -14.5q23 0 38.5 14.5t15.5 36.5q0 21 -15.5 35.5t-38.5 14.5z" />
    <glyph glyph-name="cent" unicode="&#xa2;" horiz-adv-x="469" 
d="M213 -89v572h60v-572h-60zM240 -10q-62 0 -110.5 27t-76 74t-27.5 108t26.5 107t73 72t106.5 26q58 0 96 -26t48 -64h-14v81h62v-141h-56q-9 43 -40.5 67.5t-78.5 24.5q-43 0 -76 -18.5t-51.5 -51.5t-18.5 -75q0 -45 18.5 -79.5t51 -54t74.5 -19.5q53 0 85.5 20.5
t59.5 51.5l31 -45q-29 -38 -75 -61.5t-108 -23.5z" />
    <glyph glyph-name="sterling" unicode="&#xa3;" horiz-adv-x="512" 
d="M147 -10q-48 0 -76 26.5t-28 63.5q0 38 27 66.5t74 28.5q30 0 54 -11.5t45 -28.5t40.5 -34.5t39.5 -29t43 -11.5q35 0 50.5 20t15.5 57h54v-6q0 -65 -28 -101.5t-84 -36.5q-35 0 -61.5 13.5t-47.5 33.5t-39 40t-37 33.5t-42 13.5t-37.5 -12.5t-14.5 -34.5t14.5 -34.5
t36.5 -12.5q25 0 42 15.5t26 42t9 60.5q0 31 -11 56.5t-27 48.5t-31.5 47t-26.5 51t-11 60q0 50 22 85.5t62 55t92 19.5q86 0 127.5 -42.5t41.5 -113.5h-70q0 46 -24 72.5t-74 26.5q-47 0 -75 -28.5t-28 -78.5q0 -29 9 -54.5t22.5 -49.5l27 -48t22.5 -49t9 -54
q0 -44 -17 -82t-46.5 -60.5t-69.5 -22.5zM71 263v51h345v-51h-345z" />
    <glyph glyph-name="currency" unicode="&#xa4;" horiz-adv-x="609" 
d="M305 46q-72 0 -128.5 32.5t-89 88.5t-32.5 127t32.5 126.5t89 88t128.5 32.5q71 0 127.5 -32.5t89 -88t32.5 -126.5t-32.5 -127t-89 -88.5t-127.5 -32.5zM85 29l-45 45l85 81l42 -40zM524 29l-82 86l42 40l85 -81zM305 116q50 0 89.5 23t62.5 63.5t23 91.5t-23 91
t-62.5 63t-89.5 23q-51 0 -90.5 -23t-62.5 -63t-23 -91t23 -91.5t62.5 -63.5t90.5 -23zM123 434l-83 79l45 45l80 -84zM487 435l-43 39l80 84l45 -45z" />
    <glyph glyph-name="yen" unicode="&#xa5;" horiz-adv-x="628" 
d="M147 225v45h336v-45h-336zM147 128v46h336v-46h-336zM193 0v53h82v188l-188 269h-75v53h234v-53h-71l148 -216l143 216h-72v53h222v-53h-77l-183 -268v-189h83v-53h-246z" />
    <glyph glyph-name="brokenbar" unicode="&#xa6;" horiz-adv-x="141" 
d="M40 293v300h61v-300h-61zM40 -140v300h61v-300h-61z" />
    <glyph glyph-name="section" unicode="&#xa7;" horiz-adv-x="444" 
d="M229 -83q-55 0 -87.5 13.5t-47 35t-14.5 46.5q0 26 15.5 38t38.5 12q1 -52 27 -81t75 -29q46 0 69 23t23 61q0 24 -9.5 40.5t-39 35.5t-88.5 48q-46 23 -73.5 44t-39.5 45t-12 54t17.5 52.5t42.5 32.5q-18 16 -30 39.5t-12 57.5q0 57 41 89.5t108 32.5q47 0 77.5 -12.5
t45 -33t14.5 -45.5q0 -20 -14.5 -33t-42.5 -13q-1 26 -8.5 49t-25 38t-49.5 15q-40 0 -62 -21t-22 -59q0 -27 11.5 -44t35 -30t57.5 -31q54 -27 88 -50t50.5 -47.5t16.5 -56.5q0 -30 -14.5 -56.5t-37.5 -41.5q14 -16 21 -36.5t7 -46.5q0 -60 -37.5 -97.5t-114.5 -37.5z
M324 160q11 10 15.5 23t4.5 29q0 19 -9.5 36t-33 34.5t-66.5 39.5q-9 5 -21 10.5t-24 11.5t-22 12t-17 11q-13 -7 -20.5 -20t-7.5 -29q0 -24 10.5 -40t35 -31.5t67.5 -37.5q28 -13 50 -25.5t38 -23.5z" />
    <glyph glyph-name="dieresis" unicode="&#xa8;" horiz-adv-x="482" 
d="M145 457q-20 0 -32.5 12t-12.5 31q0 20 12.5 31.5t32.5 11.5t32.5 -11.5t12.5 -31.5q0 -19 -12.5 -31t-32.5 -12zM337 457q-20 0 -32 12t-12 31q0 20 12 31.5t32 11.5t32.5 -11.5t12.5 -31.5q0 -19 -12.5 -31t-32.5 -12z" />
    <glyph glyph-name="copyright" unicode="&#xa9;" horiz-adv-x="747" 
d="M373 -15q-68 0 -125.5 22.5t-99.5 64t-65.5 97.5t-23.5 122t23.5 122t65.5 97t99.5 63.5t125.5 22.5t125.5 -22.5t100 -63.5t66 -97t23.5 -122t-23.5 -122t-66 -97.5t-100 -64t-125.5 -22.5zM373 33q74 0 131 33.5t90 91.5t33 132q0 75 -33 133.5t-90 92t-131 33.5
q-73 0 -130 -33.5t-90 -92t-33 -133.5q0 -74 33 -132.5t90 -91.5t130 -33zM378 117q-49 0 -88.5 22t-62 61.5t-22.5 90.5q0 41 13.5 73t37.5 54t54.5 33.5t64.5 11.5q32 0 59 -11t41 -32v36h46v-112h-44q-7 35 -32.5 55t-63.5 20q-30 0 -57 -14.5t-44 -43t-17 -69.5
q0 -39 15.5 -68.5t42 -46t59.5 -16.5t63 15.5t50 40.5l33 -28q-22 -33 -63 -52.5t-85 -19.5z" />
    <glyph glyph-name="ordfeminine" unicode="&#xaa;" horiz-adv-x="363" 
d="M129 244q-52 0 -80.5 28t-28.5 65t18 58t48 30.5t66 9.5q20 0 40.5 -2t40.5 -6v31q0 68 -74 68q-22 0 -52 -7t-55 -24l-20 40q26 20 61.5 29t68.5 9q42 0 71.5 -13.5t45.5 -38.5t16 -58v-168h51v-44h-108l-3 29q-20 -17 -46.5 -26.5t-59.5 -9.5zM138 287q25 0 50.5 9
t44.5 25v68q-14 3 -33 5.5t-42 2.5q-31 0 -54.5 -11.5t-23.5 -46.5q0 -22 15 -37t43 -15z" />
    <glyph glyph-name="guillemotleft" unicode="&#xab;" horiz-adv-x="435" 
d="M350 94l-146 195l146 195h53l-102 -194l102 -196h-53zM164 94l-145 195l145 195h54l-102 -194l102 -196h-54z" />
    <glyph glyph-name="logicalnot" unicode="&#xac;" horiz-adv-x="520" 
d="M399 133v120h-329v53h380v-173h-51z" />
    <glyph glyph-name="uni00AD" unicode="&#xad;" horiz-adv-x="347" 
d="M54 206v56h239v-56h-239z" />
    <glyph glyph-name="registered" unicode="&#xae;" horiz-adv-x="747" 
d="M369 -11q-71 0 -128 23.5t-97 65t-61.5 96t-21.5 116.5q0 63 21.5 117.5t61.5 96t97 65t128 23.5q72 0 129 -23.5t97 -65t61.5 -96.5t21.5 -117t-21.5 -116.5t-61.5 -96t-97 -65t-129 -23.5zM369 37q57 0 103 19.5t78.5 54.5t49.5 80.5t17 97.5t-17 98t-49.5 81.5
t-78.5 55.5t-103 20q-58 0 -104 -20t-78 -55.5t-49 -81.5t-17 -98t17 -98t49 -80.5t78 -54t104 -19.5zM229 137v30h44v264h-45v30h161q49 0 77.5 -23t28.5 -63q0 -32 -21 -54.5t-58 -28.5l70 -125h46v-30h-76l-82 151h-57v-121h43v-30h-131zM317 319h71q29 0 46 15t17 41
t-16.5 41t-44.5 15h-73v-112z" />
    <glyph glyph-name="macron" unicode="&#xaf;" horiz-adv-x="410" 
d="M100 473v45h210v-45h-210z" />
    <glyph glyph-name="degree" unicode="&#xb0;" horiz-adv-x="236" 
d="M118 374q-53 0 -84.5 34.5t-31.5 80.5t31.5 80.5t84.5 34.5t84.5 -34.5t31.5 -80.5t-31.5 -80.5t-84.5 -34.5zM119 410q35 0 55 24t20 55t-20 55t-56 24q-35 0 -55.5 -23.5t-20.5 -55.5q0 -31 20.5 -55t56.5 -24z" />
    <glyph glyph-name="plusminus" unicode="&#xb1;" horiz-adv-x="571" 
d="M256 146v181h-186v53h186v178h60v-178h185v-53h-185v-181h-60zM70 42v53h431v-53h-431z" />
    <glyph glyph-name="uni00B2" unicode="&#xb2;" horiz-adv-x="295" 
d="M24 298v37l97 90q44 41 66.5 70.5t21.5 62.5q-1 26 -16.5 43t-50.5 17q-34 0 -53 -21t-19 -59q0 -10 1.5 -20t4.5 -21h-48q-4 12 -6 24t-2 23q0 35 14 62t41.5 42.5t66.5 15.5q56 0 88.5 -29t32.5 -77q0 -46 -28.5 -82.5t-78.5 -81.5l-96 -87l-16 34h179v63h46v-106h-245
z" />
    <glyph glyph-name="uni00B3" unicode="&#xb3;" horiz-adv-x="303" 
d="M153 285q-49 0 -85 22t-48 59l42 24q12 -28 35.5 -43.5t57.5 -15.5q33 0 52.5 17t19.5 47q0 32 -25.5 47.5t-81.5 15.5l-1 43q53 0 75 15.5t22 42.5q0 26 -17.5 42.5t-48.5 16.5t-52.5 -15.5t-33.5 -38.5l-43 22q16 35 50.5 56.5t79.5 21.5q53 0 86 -26t33 -72
q0 -41 -33 -67t-95 -26v18q74 0 107.5 -29t33.5 -76q0 -46 -35.5 -73.5t-94.5 -27.5z" />
    <glyph glyph-name="acute" unicode="&#xb4;" horiz-adv-x="337" 
d="M100 477l53 145h84l-90 -145h-47z" />
    <glyph glyph-name="uni00B5" unicode="&#xb5;" horiz-adv-x="525" 
d="M92 -133v473h-66v53h140v-263q0 -37 18.5 -59t58.5 -22q35 0 66 14.5t59 40.5v236h-71v53h144v-340h73v-53h-144l-2 48q-32 -27 -67 -42.5t-72 -15.5q-21 0 -36.5 4.5t-26.5 11.5v-139h-74z" />
    <glyph glyph-name="paragraph" unicode="&#xb6;" horiz-adv-x="532" 
d="M244 -3v54h107v199h-123q-55 0 -92.5 22t-57 58t-19.5 77t18.5 76.5t58 57.5t103.5 22h256v-52h-72v-460h72v-54h-251zM256 305h95v206h-95v-206z" />
    <glyph glyph-name="periodcentered" unicode="&#xb7;" horiz-adv-x="228" 
d="M114 219q-23 0 -38.5 15t-15.5 36t15.5 35.5t38.5 14.5t38.5 -14.5t15.5 -35.5t-15.5 -36t-38.5 -15z" />
    <glyph glyph-name="cedilla" unicode="&#xb8;" horiz-adv-x="358" 
d="M187 -175q-43 0 -87 19v29q16 -4 30.5 -7t26.5 -3q17 0 27.5 6.5t10.5 19.5t-13.5 21.5t-43.5 9.5l31 80h33l-16 -58q38 -4 55 -21t17 -39q0 -31 -21 -44t-50 -13z" />
    <glyph glyph-name="uni00B9" unicode="&#xb9;" horiz-adv-x="214" 
d="M20 298v40h60v266l-58 -8l-1 39l113 17v-314h60v-40h-174z" />
    <glyph glyph-name="ordmasculine" unicode="&#xba;" horiz-adv-x="398" 
d="M198 244q-48 0 -86 20.5t-60 58t-22 87.5t22 86.5t60.5 56.5t86.5 20q49 0 87 -20t60 -56.5t22 -86.5t-22.5 -87.5t-60.5 -58t-87 -20.5zM199 294q29 0 52.5 14t37.5 40t14 62t-14 61t-37.5 38.5t-53.5 13.5q-28 0 -51.5 -13.5t-37.5 -39t-14 -61.5t14 -61.5t37.5 -39.5
t52.5 -14z" />
    <glyph glyph-name="guillemotright" unicode="&#xbb;" horiz-adv-x="435" 
d="M217 94l102 196l-102 194h54l146 -195l-146 -195h-54zM32 94l102 196l-102 194h53l146 -195l-146 -195h-53z" />
    <glyph glyph-name="onequarter" unicode="&#xbc;" horiz-adv-x="677" 
d="M40 220v40h60v266l-58 -8l-1 39l113 17v-314h60v-40h-174zM118 -1l373 568h51l-372 -568h-52zM467 0v40h56v51h-168l-5 35l172 228h51v-224h64v-39h-64v-51h56v-40h-162zM407 130h116v155z" />
    <glyph glyph-name="onehalf" unicode="&#xbd;" horiz-adv-x="708" 
d="M40 219v40h60v266l-58 -8l-1 39l113 17v-314h60v-40h-174zM117 -1l373 568h51l-372 -568h-52zM423 0v37l97 90q44 41 66.5 70.5t21.5 62.5q-1 26 -16.5 43t-50.5 17q-34 0 -53 -21t-19 -59q0 -10 1.5 -20t4.5 -21h-48q-4 12 -6 24t-2 23q0 35 14 62t41.5 42.5t66.5 15.5
q56 0 88.5 -29t32.5 -77q0 -46 -28.5 -82.5t-78.5 -81.5l-96 -87l-16 34h179v63h46v-106h-245z" />
    <glyph glyph-name="threequarters" unicode="&#xbe;" horiz-adv-x="751" 
d="M173 205q-49 0 -85 22t-48 59l42 24q12 -28 35.5 -43.5t57.5 -15.5q33 0 52.5 17t19.5 47q0 32 -25.5 47.5t-81.5 15.5l-1 43q53 0 75 15.5t22 42.5q0 26 -17.5 42.5t-48.5 16.5t-52.5 -15.5t-33.5 -38.5l-43 22q16 35 50.5 56.5t79.5 21.5q53 0 86 -26t33 -72
q0 -41 -33 -67t-95 -26v18q74 0 107.5 -29t33.5 -76q0 -46 -35.5 -73.5t-94.5 -27.5zM195 -1l373 568h51l-372 -568h-52zM541 0v40h56v51h-168l-5 35l172 228h51v-224h64v-39h-64v-51h56v-40h-162zM481 130h116v155z" />
    <glyph glyph-name="questiondown" unicode="&#xbf;" horiz-adv-x="386" 
d="M254 281v-6q0 -38 -9.5 -64.5t-27 -49.5t-42.5 -51q-32 -36 -46 -64.5t-14 -63.5q0 -41 22.5 -62t57.5 -21q40 0 62.5 23.5t24.5 67.5h84q-3 -50 -27 -83t-61.5 -50t-81.5 -17q-77 0 -122.5 39.5t-45.5 100.5q0 45 24 78.5t65 75.5q24 25 37 44t18 41t5 56v6h77zM216 440
q22 0 38 -14.5t16 -36.5t-16 -36.5t-38 -14.5q-23 0 -39 14.5t-16 36.5t16 36.5t39 14.5z" />
    <glyph glyph-name="Agrave" unicode="&#xc0;" horiz-adv-x="675" 
d="M28 0v53h72l163 457h-63v53h275v-53h-65l168 -457h68v-53h-229v53h75l-57 164h-204l-56 -164h75v-53h-222zM247 270h172l-82 239h-6zM314 647l-90 145h84l53 -145h-47z" />
    <glyph glyph-name="Aacute" unicode="&#xc1;" horiz-adv-x="675" 
d="M28 0v53h72l163 457h-63v53h275v-53h-65l168 -457h68v-53h-229v53h75l-57 164h-204l-56 -164h75v-53h-222zM247 270h172l-82 239h-6zM315 647l53 145h84l-90 -145h-47z" />
    <glyph glyph-name="Acircumflex" unicode="&#xc2;" horiz-adv-x="675" 
d="M28 0v53h72l163 457h-63v53h275v-53h-65l168 -457h68v-53h-229v53h75l-57 164h-204l-56 -164h75v-53h-222zM247 270h172l-82 239h-6zM216 619l83 157h78l83 -157h-56l-66 125l-66 -125h-56z" />
    <glyph glyph-name="Atilde" unicode="&#xc3;" horiz-adv-x="675" 
d="M28 0v53h72l163 457h-63v53h275v-53h-65l168 -457h68v-53h-229v53h75l-57 164h-204l-56 -164h75v-53h-222zM247 270h172l-82 239h-6zM401 640q-22 0 -46.5 9.5t-47 18.5t-39.5 9q-25 0 -31 -33h-31q4 46 23.5 67t49.5 21q19 0 42.5 -9t46 -18.5t37.5 -9.5t24 8t13 27h29
q-3 -37 -19 -63.5t-51 -26.5z" />
    <glyph glyph-name="Adieresis" unicode="&#xc4;" horiz-adv-x="675" 
d="M28 0v53h72l163 457h-63v53h275v-53h-65l168 -457h68v-53h-229v53h75l-57 164h-204l-56 -164h75v-53h-222zM247 270h172l-82 239h-6zM242 627q-20 0 -32.5 12t-12.5 31q0 20 12.5 31.5t32.5 11.5t32.5 -11.5t12.5 -31.5q0 -19 -12.5 -31t-32.5 -12zM434 627q-20 0 -32 12
t-12 31q0 20 12 31.5t32 11.5t32.5 -11.5t12.5 -31.5q0 -19 -12.5 -31t-32.5 -12z" />
    <glyph glyph-name="Aring" unicode="&#xc5;" horiz-adv-x="675" 
d="M28 0v53h72l163 457h-63v53h275v-53h-65l168 -457h68v-53h-229v53h75l-57 164h-204l-56 -164h75v-53h-222zM247 270h172l-82 239h-6zM338 598q-37 0 -58 22t-21 53t21 52t58 21q38 0 58.5 -21t20.5 -52t-21 -53t-58 -22zM338 629q21 0 32.5 13t11.5 31t-11.5 30.5
t-32.5 12.5t-33 -12.5t-12 -30.5t12 -31t33 -13z" />
    <glyph glyph-name="AE" unicode="&#xc6;" horiz-adv-x="970" 
d="M22 0v53h76l280 457h-61v53h558l9 -178h-62l-9 125h-272l12 -195h178l-4 66h40l12 -190h-41l-6 68h-178l12 -206h282l-8 126h62l10 -179h-503v53h76l-9 152h-205l-87 -152h68v-53h-230zM297 255h178l-15 255h-9z" />
    <glyph glyph-name="Ccedilla" unicode="&#xc7;" horiz-adv-x="665" 
d="M344 -11q-66 0 -120 21.5t-93.5 60.5t-60.5 92.5t-21 118.5q0 84 36.5 150t103 103.5t156.5 37.5q54 0 97.5 -16.5t73 -46.5t42.5 -69h-22v122h60v-170l-54 -2q-31 65 -78.5 93.5t-114.5 28.5t-116 -30.5t-75.5 -82.5t-26.5 -117q0 -53 16.5 -96t46 -74t69 -47.5
t86.5 -16.5q42 0 81 13t70 42.5t48 77.5l60 -30q-24 -61 -64 -96.5t-91.5 -50.5t-108.5 -16zM339 -175q-43 0 -87 19v29q16 -4 30.5 -7t26.5 -3q17 0 27.5 6.5t10.5 19.5t-13.5 21.5t-43.5 9.5l31 80h33l-16 -58q38 -4 55 -21t17 -39q0 -31 -21 -44t-50 -13z" />
    <glyph glyph-name="Egrave" unicode="&#xc8;" horiz-adv-x="582" 
d="M39 0v53h78v457h-78v53h490v-167h-63v114h-267v-191h175v66h41v-188h-41v67h-175v-211h272v117h63v-170h-495zM286 647l-90 145h84l53 -145h-47z" />
    <glyph glyph-name="Eacute" unicode="&#xc9;" horiz-adv-x="582" 
d="M39 0v53h78v457h-78v53h490v-167h-63v114h-267v-191h175v66h41v-188h-41v67h-175v-211h272v117h63v-170h-495zM287 647l53 145h84l-90 -145h-47z" />
    <glyph glyph-name="Ecircumflex" unicode="&#xca;" horiz-adv-x="582" 
d="M39 0v53h78v457h-78v53h490v-167h-63v114h-267v-191h175v66h41v-188h-41v67h-175v-211h272v117h63v-170h-495zM188 619l83 157h78l83 -157h-56l-66 125l-66 -125h-56z" />
    <glyph glyph-name="Edieresis" unicode="&#xcb;" horiz-adv-x="582" 
d="M39 0v53h78v457h-78v53h490v-167h-63v114h-267v-191h175v66h41v-188h-41v67h-175v-211h272v117h63v-170h-495zM214 627q-20 0 -32.5 12t-12.5 31q0 20 12.5 31.5t32.5 11.5t32.5 -11.5t12.5 -31.5q0 -19 -12.5 -31t-32.5 -12zM406 627q-20 0 -32 12t-12 31q0 20 12 31.5
t32 11.5t32.5 -11.5t12.5 -31.5q0 -19 -12.5 -31t-32.5 -12z" />
    <glyph glyph-name="Igrave" unicode="&#xcc;" horiz-adv-x="339" 
d="M50 0v53h78v457h-78v53h239v-53h-79v-457h79v-53h-239zM146 647l-90 145h84l53 -145h-47z" />
    <glyph glyph-name="Iacute" unicode="&#xcd;" horiz-adv-x="339" 
d="M50 0v53h78v457h-78v53h239v-53h-79v-457h79v-53h-239zM147 647l53 145h84l-90 -145h-47z" />
    <glyph glyph-name="Icircumflex" unicode="&#xce;" horiz-adv-x="339" 
d="M50 0v53h78v457h-78v53h239v-53h-79v-457h79v-53h-239zM48 619l83 157h78l83 -157h-56l-66 125l-66 -125h-56z" />
    <glyph glyph-name="Idieresis" unicode="&#xcf;" horiz-adv-x="339" 
d="M50 0v53h78v457h-78v53h239v-53h-79v-457h79v-53h-239zM74 627q-20 0 -32.5 12t-12.5 31q0 20 12.5 31.5t32.5 11.5t32.5 -11.5t12.5 -31.5q0 -19 -12.5 -31t-32.5 -12zM266 627q-20 0 -32 12t-12 31q0 20 12 31.5t32 11.5t32.5 -11.5t12.5 -31.5q0 -19 -12.5 -31
t-32.5 -12z" />
    <glyph glyph-name="Eth" unicode="&#xd0;" horiz-adv-x="684" 
d="M40 0v53h78v457h-78v53h306q74 0 128 -23.5t90 -63t53.5 -89t17.5 -100.5q0 -62 -18 -114.5t-54 -91t-90 -60t-126 -21.5h-307zM200 53h139q56 0 96.5 18t66 49.5t37.5 74t12 90.5q0 43 -12.5 83t-38 72t-65 51t-93.5 19h-142v-457zM40 261v56h239v-56h-239z" />
    <glyph glyph-name="Ntilde" unicode="&#xd1;" horiz-adv-x="704" 
d="M41 0v53h80v457h-80v53h174l322 -455v402h-80v53h221v-53h-78v-510h-81l-336 479v-426h80v-53h-222zM414 640q-22 0 -46.5 9.5t-47 18.5t-39.5 9q-25 0 -31 -33h-31q4 46 23.5 67t49.5 21q19 0 42.5 -9t46 -18.5t37.5 -9.5t24 8t13 27h29q-3 -37 -19 -63.5t-51 -26.5z
" />
    <glyph glyph-name="Ograve" unicode="&#xd2;" horiz-adv-x="709" 
d="M354 -11q-69 0 -125.5 23t-96.5 63.5t-61.5 93t-21.5 111.5t21.5 112t61.5 93.5t96.5 64t125.5 23.5t125.5 -23.5t96.5 -64t61.5 -93.5t21.5 -112t-21.5 -111.5t-61.5 -93t-96 -63.5t-126 -23zM354 49q51 0 91.5 18t69 50t43 73.5t14.5 89.5t-14.5 90.5t-43 74.5
t-69 50.5t-91.5 18.5q-52 0 -92 -18.5t-68 -51t-42.5 -75t-14.5 -90.5t14.5 -89.5t42.5 -73.5t68 -49.5t92 -17.5zM329 647l-90 145h84l53 -145h-47z" />
    <glyph glyph-name="Oacute" unicode="&#xd3;" horiz-adv-x="709" 
d="M354 -11q-69 0 -125.5 23t-96.5 63.5t-61.5 93t-21.5 111.5t21.5 112t61.5 93.5t96.5 64t125.5 23.5t125.5 -23.5t96.5 -64t61.5 -93.5t21.5 -112t-21.5 -111.5t-61.5 -93t-96 -63.5t-126 -23zM354 49q51 0 91.5 18t69 50t43 73.5t14.5 89.5t-14.5 90.5t-43 74.5
t-69 50.5t-91.5 18.5q-52 0 -92 -18.5t-68 -51t-42.5 -75t-14.5 -90.5t14.5 -89.5t42.5 -73.5t68 -49.5t92 -17.5zM330 647l53 145h84l-90 -145h-47z" />
    <glyph glyph-name="Ocircumflex" unicode="&#xd4;" horiz-adv-x="709" 
d="M354 -11q-69 0 -125.5 23t-96.5 63.5t-61.5 93t-21.5 111.5t21.5 112t61.5 93.5t96.5 64t125.5 23.5t125.5 -23.5t96.5 -64t61.5 -93.5t21.5 -112t-21.5 -111.5t-61.5 -93t-96 -63.5t-126 -23zM354 49q51 0 91.5 18t69 50t43 73.5t14.5 89.5t-14.5 90.5t-43 74.5
t-69 50.5t-91.5 18.5q-52 0 -92 -18.5t-68 -51t-42.5 -75t-14.5 -90.5t14.5 -89.5t42.5 -73.5t68 -49.5t92 -17.5zM231 619l83 157h78l83 -157h-56l-66 125l-66 -125h-56z" />
    <glyph glyph-name="Otilde" unicode="&#xd5;" horiz-adv-x="709" 
d="M354 -11q-69 0 -125.5 23t-96.5 63.5t-61.5 93t-21.5 111.5t21.5 112t61.5 93.5t96.5 64t125.5 23.5t125.5 -23.5t96.5 -64t61.5 -93.5t21.5 -112t-21.5 -111.5t-61.5 -93t-96 -63.5t-126 -23zM354 49q51 0 91.5 18t69 50t43 73.5t14.5 89.5t-14.5 90.5t-43 74.5
t-69 50.5t-91.5 18.5q-52 0 -92 -18.5t-68 -51t-42.5 -75t-14.5 -90.5t14.5 -89.5t42.5 -73.5t68 -49.5t92 -17.5zM416 640q-22 0 -46.5 9.5t-47 18.5t-39.5 9q-25 0 -31 -33h-31q4 46 23.5 67t49.5 21q19 0 42.5 -9t46 -18.5t37.5 -9.5t24 8t13 27h29q-3 -37 -19 -63.5
t-51 -26.5z" />
    <glyph glyph-name="Odieresis" unicode="&#xd6;" horiz-adv-x="709" 
d="M354 -11q-69 0 -125.5 23t-96.5 63.5t-61.5 93t-21.5 111.5t21.5 112t61.5 93.5t96.5 64t125.5 23.5t125.5 -23.5t96.5 -64t61.5 -93.5t21.5 -112t-21.5 -111.5t-61.5 -93t-96 -63.5t-126 -23zM354 49q51 0 91.5 18t69 50t43 73.5t14.5 89.5t-14.5 90.5t-43 74.5
t-69 50.5t-91.5 18.5q-52 0 -92 -18.5t-68 -51t-42.5 -75t-14.5 -90.5t14.5 -89.5t42.5 -73.5t68 -49.5t92 -17.5zM257 627q-20 0 -32.5 12t-12.5 31q0 20 12.5 31.5t32.5 11.5t32.5 -11.5t12.5 -31.5q0 -19 -12.5 -31t-32.5 -12zM449 627q-20 0 -32 12t-12 31q0 20 12 31.5
t32 11.5t32.5 -11.5t12.5 -31.5q0 -19 -12.5 -31t-32.5 -12z" />
    <glyph glyph-name="multiply" unicode="&#xd7;" horiz-adv-x="491" 
d="M68 62l-40 41l177 177l-174 175l39 39l175 -174l177 177l41 -40l-178 -178l174 -174l-39 -39l-174 174z" />
    <glyph glyph-name="Oslash" unicode="&#xd8;" horiz-adv-x="660" 
d="M117 -37l-38 27l475 605l38 -26zM330 -12q-69 0 -125.5 23t-96.5 63.5t-61.5 93t-21.5 111.5t21.5 112t61.5 93.5t96.5 64t125.5 23.5t125.5 -23.5t96.5 -64t61.5 -93.5t21.5 -112t-21.5 -111.5t-61.5 -93t-96 -63.5t-126 -23zM330 48q51 0 91.5 18t69 50t43 73.5
t14.5 89.5t-14.5 90.5t-43 74.5t-69 50.5t-91.5 18.5q-52 0 -92 -18.5t-68 -51t-42.5 -75t-14.5 -90.5t14.5 -89.5t42.5 -73.5t68 -49.5t92 -17.5z" />
    <glyph glyph-name="Ugrave" unicode="&#xd9;" horiz-adv-x="670" 
d="M337 -10q-84 0 -135.5 28t-75.5 76.5t-24 109.5v306h-75v53h231v-53h-75v-317q0 -44 18.5 -76.5t53.5 -49.5t84 -17q53 0 90 17t56.5 49.5t19.5 77.5v316h-74v53h219v-53h-76v-313q0 -70 -30.5 -115.5t-83.5 -68.5t-123 -23zM320 647l-90 145h84l53 -145h-47z" />
    <glyph glyph-name="Uacute" unicode="&#xda;" horiz-adv-x="670" 
d="M337 -10q-84 0 -135.5 28t-75.5 76.5t-24 109.5v306h-75v53h231v-53h-75v-317q0 -44 18.5 -76.5t53.5 -49.5t84 -17q53 0 90 17t56.5 49.5t19.5 77.5v316h-74v53h219v-53h-76v-313q0 -70 -30.5 -115.5t-83.5 -68.5t-123 -23zM321 647l53 145h84l-90 -145h-47z" />
    <glyph glyph-name="Ucircumflex" unicode="&#xdb;" horiz-adv-x="670" 
d="M337 -10q-84 0 -135.5 28t-75.5 76.5t-24 109.5v306h-75v53h231v-53h-75v-317q0 -44 18.5 -76.5t53.5 -49.5t84 -17q53 0 90 17t56.5 49.5t19.5 77.5v316h-74v53h219v-53h-76v-313q0 -70 -30.5 -115.5t-83.5 -68.5t-123 -23zM222 619l83 157h78l83 -157h-56l-66 125
l-66 -125h-56z" />
    <glyph glyph-name="Udieresis" unicode="&#xdc;" horiz-adv-x="670" 
d="M337 -10q-84 0 -135.5 28t-75.5 76.5t-24 109.5v306h-75v53h231v-53h-75v-317q0 -44 18.5 -76.5t53.5 -49.5t84 -17q53 0 90 17t56.5 49.5t19.5 77.5v316h-74v53h219v-53h-76v-313q0 -70 -30.5 -115.5t-83.5 -68.5t-123 -23zM248 627q-20 0 -32.5 12t-12.5 31
q0 20 12.5 31.5t32.5 11.5t32.5 -11.5t12.5 -31.5q0 -19 -12.5 -31t-32.5 -12zM440 627q-20 0 -32 12t-12 31q0 20 12 31.5t32 11.5t32.5 -11.5t12.5 -31.5q0 -19 -12.5 -31t-32.5 -12z" />
    <glyph glyph-name="Yacute" unicode="&#xdd;" horiz-adv-x="632" 
d="M195 0v53h82v188l-188 269h-75v53h234v-53h-71l148 -216l143 216h-72v53h222v-53h-77l-183 -268v-189h83v-53h-246zM299 647l53 145h84l-90 -145h-47z" />
    <glyph glyph-name="Thorn" unicode="&#xde;" horiz-adv-x="555" 
d="M50 0v53h78v457h-78v53h239v-53h-79v-74l-16 10h137q91 0 140 -37t49 -103q0 -71 -48.5 -108.5t-138.5 -37.5h-93v48h93q51 0 80 24.5t29 73.5q0 41 -29.5 64.5t-81.5 23.5h-137l16 13v-354h79v-53h-239z" />
    <glyph glyph-name="germandbls" unicode="&#xdf;" horiz-adv-x="530" 
d="M20 0v54h74v338q0 90 49.5 140.5t135.5 50.5q77 0 120.5 -38.5t43.5 -102.5q0 -52 -29 -88t-76 -43l-3 9q53 -3 91 -21.5t58.5 -51.5t20.5 -82q0 -83 -59.5 -124t-161.5 -41v54q43 0 74.5 11t49 36t17.5 65q0 62 -38.5 89.5t-106.5 27.5h-15v52h15q42 2 65 28.5t23 71.5
q0 41 -22.5 66t-64.5 25q-51 0 -79 -35.5t-28 -94.5v-342h58v-54h-212z" />
    <glyph glyph-name="agrave" unicode="&#xe0;" horiz-adv-x="456" 
d="M174 -11q-61 0 -98 34t-37 83q0 45 21.5 72t57.5 39t79 12q34 0 69.5 -5.5t69.5 -14.5l-30 -5v53q0 47 -25 69t-68 22q-28 0 -65.5 -9.5t-69.5 -26.5l-22 48q35 22 79 32.5t79 10.5q52 0 89 -17t56.5 -48.5t19.5 -73.5v-211h62v-53h-127l-6 56h28q-39 -34 -76 -50.5
t-86 -16.5zM185 40q37 0 74 16t77 49l-30 -36v116l23 -18q-26 8 -59 13t-68 5t-64 -15.5t-29 -59.5q0 -30 20 -50t56 -20zM193 477l-90 145h84l53 -145h-47z" />
    <glyph glyph-name="aacute" unicode="&#xe1;" horiz-adv-x="456" 
d="M174 -11q-61 0 -98 34t-37 83q0 45 21.5 72t57.5 39t79 12q34 0 69.5 -5.5t69.5 -14.5l-30 -5v53q0 47 -25 69t-68 22q-28 0 -65.5 -9.5t-69.5 -26.5l-22 48q35 22 79 32.5t79 10.5q52 0 89 -17t56.5 -48.5t19.5 -73.5v-211h62v-53h-127l-6 56h28q-39 -34 -76 -50.5
t-86 -16.5zM185 40q37 0 74 16t77 49l-30 -36v116l23 -18q-26 8 -59 13t-68 5t-64 -15.5t-29 -59.5q0 -30 20 -50t56 -20zM194 477l53 145h84l-90 -145h-47z" />
    <glyph glyph-name="acircumflex" unicode="&#xe2;" horiz-adv-x="456" 
d="M174 -11q-61 0 -98 34t-37 83q0 45 21.5 72t57.5 39t79 12q34 0 69.5 -5.5t69.5 -14.5l-30 -5v53q0 47 -25 69t-68 22q-28 0 -65.5 -9.5t-69.5 -26.5l-22 48q35 22 79 32.5t79 10.5q52 0 89 -17t56.5 -48.5t19.5 -73.5v-211h62v-53h-127l-6 56h28q-39 -34 -76 -50.5
t-86 -16.5zM185 40q37 0 74 16t77 49l-30 -36v116l23 -18q-26 8 -59 13t-68 5t-64 -15.5t-29 -59.5q0 -30 20 -50t56 -20zM95 449l83 157h78l83 -157h-56l-66 125l-66 -125h-56z" />
    <glyph glyph-name="atilde" unicode="&#xe3;" horiz-adv-x="456" 
d="M174 -11q-61 0 -98 34t-37 83q0 45 21.5 72t57.5 39t79 12q34 0 69.5 -5.5t69.5 -14.5l-30 -5v53q0 47 -25 69t-68 22q-28 0 -65.5 -9.5t-69.5 -26.5l-22 48q35 22 79 32.5t79 10.5q52 0 89 -17t56.5 -48.5t19.5 -73.5v-211h62v-53h-127l-6 56h28q-39 -34 -76 -50.5
t-86 -16.5zM185 40q37 0 74 16t77 49l-30 -36v116l23 -18q-26 8 -59 13t-68 5t-64 -15.5t-29 -59.5q0 -30 20 -50t56 -20zM280 470q-22 0 -46.5 9.5t-47 18.5t-39.5 9q-25 0 -31 -33h-31q4 46 23.5 67t49.5 21q19 0 42.5 -9t46 -18.5t37.5 -9.5t24 8t13 27h29
q-3 -37 -19 -63.5t-51 -26.5z" />
    <glyph glyph-name="adieresis" unicode="&#xe4;" horiz-adv-x="456" 
d="M174 -11q-61 0 -98 34t-37 83q0 45 21.5 72t57.5 39t79 12q34 0 69.5 -5.5t69.5 -14.5l-30 -5v53q0 47 -25 69t-68 22q-28 0 -65.5 -9.5t-69.5 -26.5l-22 48q35 22 79 32.5t79 10.5q52 0 89 -17t56.5 -48.5t19.5 -73.5v-211h62v-53h-127l-6 56h28q-39 -34 -76 -50.5
t-86 -16.5zM185 40q37 0 74 16t77 49l-30 -36v116l23 -18q-26 8 -59 13t-68 5t-64 -15.5t-29 -59.5q0 -30 20 -50t56 -20zM121 457q-20 0 -32.5 12t-12.5 31q0 20 12.5 31.5t32.5 11.5t32.5 -11.5t12.5 -31.5q0 -19 -12.5 -31t-32.5 -12zM313 457q-20 0 -32 12t-12 31
q0 20 12 31.5t32 11.5t32.5 -11.5t12.5 -31.5q0 -19 -12.5 -31t-32.5 -12z" />
    <glyph glyph-name="aring" unicode="&#xe5;" horiz-adv-x="456" 
d="M174 -11q-61 0 -98 34t-37 83q0 45 21.5 72t57.5 39t79 12q34 0 69.5 -5.5t69.5 -14.5l-30 -5v53q0 47 -25 69t-68 22q-28 0 -65.5 -9.5t-69.5 -26.5l-22 48q35 22 79 32.5t79 10.5q52 0 89 -17t56.5 -48.5t19.5 -73.5v-211h62v-53h-127l-6 56h28q-39 -34 -76 -50.5
t-86 -16.5zM185 40q37 0 74 16t77 49l-30 -36v116l23 -18q-26 8 -59 13t-68 5t-64 -15.5t-29 -59.5q0 -30 20 -50t56 -20zM217 428q-37 0 -58 22t-21 53t21 52t58 21q38 0 58.5 -21t20.5 -52t-21 -53t-58 -22zM217 459q21 0 32.5 13t11.5 31t-11.5 30.5t-32.5 12.5
t-33 -12.5t-12 -30.5t12 -31t33 -13z" />
    <glyph glyph-name="ae" unicode="&#xe6;" horiz-adv-x="742" 
d="M179 -11q-64 0 -102 34t-38 83q0 45 22.5 71.5t60.5 38t84 11.5h100v30q0 47 -25 69t-68 22q-28 0 -65.5 -9.5t-69.5 -26.5l-22 48q35 22 79 32.5t79 10.5q34 0 62 -7.5t48.5 -22t33.5 -34.5q29 31 69 48t87 17q60 0 103.5 -25t66.5 -71t23 -108v-19h-324q4 -42 23 -72.5
t49.5 -47t69.5 -16.5q45 0 83 18t66 45l26 -45q-27 -31 -70 -53t-102 -22q-54 0 -99 19.5t-75 54.5q-41 -38 -82.5 -55.5t-92.5 -17.5zM190 40q37 0 69.5 14.5t69.5 44.5q-10 18 -15.5 38.5t-7.5 43.5h-95q-26 0 -49.5 -6.5t-38 -21.5t-14.5 -43q0 -30 21.5 -50t59.5 -20z
M383 227h251q0 39 -15.5 66.5t-42.5 42t-62 14.5q-34 0 -62 -14.5t-46 -42t-23 -66.5z" />
    <glyph glyph-name="ccedilla" unicode="&#xe7;" horiz-adv-x="469" 
d="M240 -10q-62 0 -110.5 27t-76 74t-27.5 108t26.5 107t73 72t106.5 26q58 0 96 -26t48 -64h-14v81h62v-141h-56q-9 43 -40.5 67.5t-78.5 24.5q-43 0 -76 -18.5t-51.5 -51.5t-18.5 -75q0 -45 18.5 -79.5t51 -54t74.5 -19.5q53 0 85.5 20.5t59.5 51.5l31 -45
q-29 -38 -75 -61.5t-108 -23.5zM242 -175q-43 0 -87 19v29q16 -4 30.5 -7t26.5 -3q17 0 27.5 6.5t10.5 19.5t-13.5 21.5t-43.5 9.5l31 80h33l-16 -58q38 -4 55 -21t17 -39q0 -31 -21 -44t-50 -13z" />
    <glyph glyph-name="egrave" unicode="&#xe8;" horiz-adv-x="461" 
d="M247 -12q-62 0 -112.5 26t-80 73t-29.5 109q0 64 28 110.5t75 72t105 25.5q60 0 103.5 -25t66.5 -71t23 -108v-19h-336l1 46h262q0 39 -15.5 66.5t-42.5 42t-62 14.5q-37 0 -67 -17.5t-47.5 -50t-17.5 -78.5q0 -49 18 -84.5t50.5 -55t74.5 -19.5q45 0 83 18t66 45l26 -45
q-27 -31 -70 -53t-102 -22zM212 477l-90 145h84l53 -145h-47z" />
    <glyph glyph-name="eacute" unicode="&#xe9;" horiz-adv-x="461" 
d="M247 -12q-62 0 -112.5 26t-80 73t-29.5 109q0 64 28 110.5t75 72t105 25.5q60 0 103.5 -25t66.5 -71t23 -108v-19h-336l1 46h262q0 39 -15.5 66.5t-42.5 42t-62 14.5q-37 0 -67 -17.5t-47.5 -50t-17.5 -78.5q0 -49 18 -84.5t50.5 -55t74.5 -19.5q45 0 83 18t66 45l26 -45
q-27 -31 -70 -53t-102 -22zM213 477l53 145h84l-90 -145h-47z" />
    <glyph glyph-name="ecircumflex" unicode="&#xea;" horiz-adv-x="461" 
d="M247 -12q-62 0 -112.5 26t-80 73t-29.5 109q0 64 28 110.5t75 72t105 25.5q60 0 103.5 -25t66.5 -71t23 -108v-19h-336l1 46h262q0 39 -15.5 66.5t-42.5 42t-62 14.5q-37 0 -67 -17.5t-47.5 -50t-17.5 -78.5q0 -49 18 -84.5t50.5 -55t74.5 -19.5q45 0 83 18t66 45l26 -45
q-27 -31 -70 -53t-102 -22zM114 449l83 157h78l83 -157h-56l-66 125l-66 -125h-56z" />
    <glyph glyph-name="edieresis" unicode="&#xeb;" horiz-adv-x="461" 
d="M247 -12q-62 0 -112.5 26t-80 73t-29.5 109q0 64 28 110.5t75 72t105 25.5q60 0 103.5 -25t66.5 -71t23 -108v-19h-336l1 46h262q0 39 -15.5 66.5t-42.5 42t-62 14.5q-37 0 -67 -17.5t-47.5 -50t-17.5 -78.5q0 -49 18 -84.5t50.5 -55t74.5 -19.5q45 0 83 18t66 45l26 -45
q-27 -31 -70 -53t-102 -22zM140 457q-20 0 -32.5 12t-12.5 31q0 20 12.5 31.5t32.5 11.5t32.5 -11.5t12.5 -31.5q0 -19 -12.5 -31t-32.5 -12zM332 457q-20 0 -32 12t-12 31q0 20 12 31.5t32 11.5t32.5 -11.5t12.5 -31.5q0 -19 -12.5 -31t-32.5 -12z" />
    <glyph glyph-name="igrave" unicode="&#xec;" horiz-adv-x="267" 
d="M22 0v53h76v287h-75v53h148v-340h71v-53h-220zM101 477l-90 145h84l53 -145h-47z" />
    <glyph glyph-name="iacute" unicode="&#xed;" horiz-adv-x="267" 
d="M22 0v53h76v287h-75v53h148v-340h71v-53h-220zM102 477l53 145h84l-90 -145h-47z" />
    <glyph glyph-name="icircumflex" unicode="&#xee;" horiz-adv-x="267" 
d="M22 0v53h76v287h-75v53h148v-340h71v-53h-220zM3 449l83 157h78l83 -157h-56l-66 125l-66 -125h-56z" />
    <glyph glyph-name="idieresis" unicode="&#xef;" horiz-adv-x="267" 
d="M22 0v53h76v287h-75v53h148v-340h71v-53h-220zM29 457q-20 0 -32.5 12t-12.5 31q0 20 12.5 31.5t32.5 11.5t32.5 -11.5t12.5 -31.5q0 -19 -12.5 -31t-32.5 -12zM221 457q-20 0 -32 12t-12 31q0 20 12 31.5t32 11.5t32.5 -11.5t12.5 -31.5q0 -19 -12.5 -31t-32.5 -12z" />
    <glyph glyph-name="eth" unicode="&#xf0;" horiz-adv-x="479" 
d="M242 -10q-65 0 -109.5 26.5t-67.5 71t-23 98.5q0 57 23 102t66 71t103 26q44 0 72 -13.5t36 -21.5q-23 49 -65 96.5t-94 92.5t-105 85l36 45q43 -34 89 -72t88.5 -80.5t76.5 -91.5t54 -106t20 -124q0 -60 -26 -106t-71 -72.5t-103 -26.5zM242 49q47 0 76 21.5t42.5 55
t13.5 69.5q0 42 -16 72.5t-45.5 47t-70.5 16.5q-40 0 -69 -18.5t-44.5 -50.5t-15.5 -75q0 -36 15 -67.5t44 -51t70 -19.5zM111 432l-22 45l294 131l23 -44z" />
    <glyph glyph-name="ntilde" unicode="&#xf1;" horiz-adv-x="517" 
d="M22 0v53h76v287h-76v53h149v-54l-28 -3q42 29 84 48t86 19q54 0 91.5 -33.5t37.5 -97.5v-219h73v-53h-211v53h65v205q0 41 -20 64t-55 23q-36 0 -73 -16t-79 -44l29 32v-264h71v-53h-220zM345 470q-22 0 -46.5 9.5t-47 18.5t-39.5 9q-25 0 -31 -33h-31q4 46 23.5 67
t49.5 21q19 0 42.5 -9t46 -18.5t37.5 -9.5t24 8t13 27h29q-3 -37 -19 -63.5t-51 -26.5z" />
    <glyph glyph-name="ograve" unicode="&#xf2;" horiz-adv-x="476" 
d="M237 -12q-63 0 -111 26t-74.5 73t-26.5 110t26.5 109.5t74.5 72t111 25.5q64 0 112 -25.5t75 -72t27 -108.5q0 -63 -27 -110t-75 -73.5t-112 -26.5zM237 46q42 0 73 19t48 53t17 80q0 45 -17 78t-48 51.5t-73 18.5q-41 0 -71.5 -18.5t-47.5 -52t-17 -78.5t17 -79
t47.5 -53t71.5 -19zM213 477l-90 145h84l53 -145h-47z" />
    <glyph glyph-name="oacute" unicode="&#xf3;" horiz-adv-x="476" 
d="M237 -12q-63 0 -111 26t-74.5 73t-26.5 110t26.5 109.5t74.5 72t111 25.5q64 0 112 -25.5t75 -72t27 -108.5q0 -63 -27 -110t-75 -73.5t-112 -26.5zM237 46q42 0 73 19t48 53t17 80q0 45 -17 78t-48 51.5t-73 18.5q-41 0 -71.5 -18.5t-47.5 -52t-17 -78.5t17 -79
t47.5 -53t71.5 -19zM214 477l53 145h84l-90 -145h-47z" />
    <glyph glyph-name="ocircumflex" unicode="&#xf4;" horiz-adv-x="476" 
d="M237 -12q-63 0 -111 26t-74.5 73t-26.5 110t26.5 109.5t74.5 72t111 25.5q64 0 112 -25.5t75 -72t27 -108.5q0 -63 -27 -110t-75 -73.5t-112 -26.5zM237 46q42 0 73 19t48 53t17 80q0 45 -17 78t-48 51.5t-73 18.5q-41 0 -71.5 -18.5t-47.5 -52t-17 -78.5t17 -79
t47.5 -53t71.5 -19zM115 449l83 157h78l83 -157h-56l-66 125l-66 -125h-56z" />
    <glyph glyph-name="otilde" unicode="&#xf5;" horiz-adv-x="476" 
d="M237 -12q-63 0 -111 26t-74.5 73t-26.5 110t26.5 109.5t74.5 72t111 25.5q64 0 112 -25.5t75 -72t27 -108.5q0 -63 -27 -110t-75 -73.5t-112 -26.5zM237 46q42 0 73 19t48 53t17 80q0 45 -17 78t-48 51.5t-73 18.5q-41 0 -71.5 -18.5t-47.5 -52t-17 -78.5t17 -79
t47.5 -53t71.5 -19zM300 470q-22 0 -46.5 9.5t-47 18.5t-39.5 9q-25 0 -31 -33h-31q4 46 23.5 67t49.5 21q19 0 42.5 -9t46 -18.5t37.5 -9.5t24 8t13 27h29q-3 -37 -19 -63.5t-51 -26.5z" />
    <glyph glyph-name="odieresis" unicode="&#xf6;" horiz-adv-x="476" 
d="M237 -12q-63 0 -111 26t-74.5 73t-26.5 110t26.5 109.5t74.5 72t111 25.5q64 0 112 -25.5t75 -72t27 -108.5q0 -63 -27 -110t-75 -73.5t-112 -26.5zM237 46q42 0 73 19t48 53t17 80q0 45 -17 78t-48 51.5t-73 18.5q-41 0 -71.5 -18.5t-47.5 -52t-17 -78.5t17 -79
t47.5 -53t71.5 -19zM141 457q-20 0 -32.5 12t-12.5 31q0 20 12.5 31.5t32.5 11.5t32.5 -11.5t12.5 -31.5q0 -19 -12.5 -31t-32.5 -12zM333 457q-20 0 -32 12t-12 31q0 20 12 31.5t32 11.5t32.5 -11.5t12.5 -31.5q0 -19 -12.5 -31t-32.5 -12z" />
    <glyph glyph-name="divide" unicode="&#xf7;" horiz-adv-x="571" 
d="M70 253v53h431v-53h-431zM241 60v90h90v-90h-90zM241 409v90h90v-90h-90z" />
    <glyph glyph-name="oslash" unicode="&#xf8;" horiz-adv-x="482" 
d="M122 -63l-35 18l272 498l35 -17zM237 -12q-63 0 -111 26t-74.5 73t-26.5 110t26.5 109.5t74.5 72t111 25.5q64 0 112 -25.5t75 -72t27 -108.5q0 -63 -27 -110t-75 -73.5t-112 -26.5zM237 46q42 0 73 19t48 53t17 80q0 45 -17 78t-48 51.5t-73 18.5q-41 0 -71.5 -18.5
t-47.5 -52t-17 -78.5t17 -79t47.5 -53t71.5 -19z" />
    <glyph glyph-name="ugrave" unicode="&#xf9;" horiz-adv-x="510" 
d="M208 -10q-46 0 -75 18t-42.5 48t-13.5 66v218h-66v53h140v-263q0 -37 18 -59t56 -22q44 0 81 21t70 58l-23 -39v251h-71v53h144v-340h73v-53h-144l-3 65l26 5q-39 -37 -81.5 -58.5t-88.5 -21.5zM215 477l-90 145h84l53 -145h-47z" />
    <glyph glyph-name="uacute" unicode="&#xfa;" horiz-adv-x="510" 
d="M208 -10q-46 0 -75 18t-42.5 48t-13.5 66v218h-66v53h140v-263q0 -37 18 -59t56 -22q44 0 81 21t70 58l-23 -39v251h-71v53h144v-340h73v-53h-144l-3 65l26 5q-39 -37 -81.5 -58.5t-88.5 -21.5zM216 477l53 145h84l-90 -145h-47z" />
    <glyph glyph-name="ucircumflex" unicode="&#xfb;" horiz-adv-x="510" 
d="M208 -10q-46 0 -75 18t-42.5 48t-13.5 66v218h-66v53h140v-263q0 -37 18 -59t56 -22q44 0 81 21t70 58l-23 -39v251h-71v53h144v-340h73v-53h-144l-3 65l26 5q-39 -37 -81.5 -58.5t-88.5 -21.5zM117 449l83 157h78l83 -157h-56l-66 125l-66 -125h-56z" />
    <glyph glyph-name="udieresis" unicode="&#xfc;" horiz-adv-x="510" 
d="M208 -10q-46 0 -75 18t-42.5 48t-13.5 66v218h-66v53h140v-263q0 -37 18 -59t56 -22q44 0 81 21t70 58l-23 -39v251h-71v53h144v-340h73v-53h-144l-3 65l26 5q-39 -37 -81.5 -58.5t-88.5 -21.5zM143 457q-20 0 -32.5 12t-12.5 31q0 20 12.5 31.5t32.5 11.5t32.5 -11.5
t12.5 -31.5q0 -19 -12.5 -31t-32.5 -12zM335 457q-20 0 -32 12t-12 31q0 20 12 31.5t32 11.5t32.5 -11.5t12.5 -31.5q0 -19 -12.5 -31t-32.5 -12z" />
    <glyph glyph-name="yacute" unicode="&#xfd;" horiz-adv-x="519" 
d="M101 -159v60h45q26 0 42 4t27.5 18t21.5 44l21 58h-31l-146 315h-73v53h206v-53h-58l118 -267l105 267h-68v53h205v-53h-64l-146 -363q-18 -46 -33.5 -76t-42.5 -45t-78 -15h-51zM240 477l53 145h84l-90 -145h-47z" />
    <glyph glyph-name="thorn" unicode="&#xfe;" horiz-adv-x="537" 
d="M20 -159v54h68v614h-72v54h147v-210q34 29 73 43t77 14q53 0 96 -23t69 -68t26 -110q0 -67 -28 -114.5t-74 -72.5t-101 -25q-37 0 -73.5 14.5t-64.5 42.5v-159h70v-54h-213zM288 52q59 0 99 38.5t40 112.5q0 72 -38 111.5t-96 39.5q-31 0 -65.5 -15t-64.5 -44v-189
q27 -26 60.5 -40t64.5 -14z" />
    <glyph glyph-name="ydieresis" unicode="&#xff;" horiz-adv-x="519" 
d="M101 -159v60h45q26 0 42 4t27.5 18t21.5 44l21 58h-31l-146 315h-73v53h206v-53h-58l118 -267l105 267h-68v53h205v-53h-64l-146 -363q-18 -46 -33.5 -76t-42.5 -45t-78 -15h-51zM167 457q-20 0 -32.5 12t-12.5 31q0 20 12.5 31.5t32.5 11.5t32.5 -11.5t12.5 -31.5
q0 -19 -12.5 -31t-32.5 -12zM359 457q-20 0 -32 12t-12 31q0 20 12 31.5t32 11.5t32.5 -11.5t12.5 -31.5q0 -19 -12.5 -31t-32.5 -12z" />
    <glyph glyph-name="Amacron" unicode="&#x100;" horiz-adv-x="675" 
d="M28 0v53h72l163 457h-63v53h275v-53h-65l168 -457h68v-53h-229v53h75l-57 164h-204l-56 -164h75v-53h-222zM247 270h172l-82 239h-6zM233 643v45h210v-45h-210z" />
    <glyph glyph-name="amacron" unicode="&#x101;" horiz-adv-x="456" 
d="M174 -11q-61 0 -98 34t-37 83q0 45 21.5 72t57.5 39t79 12q34 0 69.5 -5.5t69.5 -14.5l-30 -5v53q0 47 -25 69t-68 22q-28 0 -65.5 -9.5t-69.5 -26.5l-22 48q35 22 79 32.5t79 10.5q52 0 89 -17t56.5 -48.5t19.5 -73.5v-211h62v-53h-127l-6 56h28q-39 -34 -76 -50.5
t-86 -16.5zM185 40q37 0 74 16t77 49l-30 -36v116l23 -18q-26 8 -59 13t-68 5t-64 -15.5t-29 -59.5q0 -30 20 -50t56 -20zM112 473v45h210v-45h-210z" />
    <glyph glyph-name="Abreve" unicode="&#x102;" horiz-adv-x="675" 
d="M28 0v53h72l163 457h-63v53h275v-53h-65l168 -457h68v-53h-229v53h75l-57 164h-204l-56 -164h75v-53h-222zM247 270h172l-82 239h-6zM338 620q-45 -1 -75 26.5t-35 73.5h49q11 -55 61 -55q23 0 39.5 14.5t20.5 40.5h50q-5 -46 -34.5 -72.5t-75.5 -27.5z" />
    <glyph glyph-name="abreve" unicode="&#x103;" horiz-adv-x="456" 
d="M174 -11q-61 0 -98 34t-37 83q0 45 21.5 72t57.5 39t79 12q34 0 69.5 -5.5t69.5 -14.5l-30 -5v53q0 47 -25 69t-68 22q-28 0 -65.5 -9.5t-69.5 -26.5l-22 48q35 22 79 32.5t79 10.5q52 0 89 -17t56.5 -48.5t19.5 -73.5v-211h62v-53h-127l-6 56h28q-39 -34 -76 -50.5
t-86 -16.5zM185 40q37 0 74 16t77 49l-30 -36v116l23 -18q-26 8 -59 13t-68 5t-64 -15.5t-29 -59.5q0 -30 20 -50t56 -20zM217 450q-45 -1 -75 26.5t-35 73.5h49q11 -55 61 -55q23 0 39.5 14.5t20.5 40.5h50q-5 -46 -34.5 -72.5t-75.5 -27.5z" />
    <glyph glyph-name="Aogonek" unicode="&#x104;" horiz-adv-x="675" 
d="M28 0v53h72l163 457h-63v53h275v-53h-65l168 -457h68v-53h-229v53h75l-57 164h-204l-56 -164h75v-53h-222zM247 270h172l-82 239h-6zM545 -169q-34 0 -57 20.5t-23 53.5q0 25 13.5 47.5t39.5 47.5h43q-21 -22 -33 -42t-12 -38q0 -22 13.5 -32.5t33.5 -10.5q22 0 44 13
v-40q-17 -10 -31 -14.5t-31 -4.5z" />
    <glyph glyph-name="aogonek" unicode="&#x105;" horiz-adv-x="456" 
d="M174 -11q-61 0 -98 34t-37 83q0 45 21.5 72t57.5 39t79 12q34 0 69.5 -5.5t69.5 -14.5l-30 -5v53q0 47 -25 69t-68 22q-28 0 -65.5 -9.5t-69.5 -26.5l-22 48q35 22 79 32.5t79 10.5q52 0 89 -17t56.5 -48.5t19.5 -73.5v-211h62v-53h-127l-6 56h28q-39 -34 -76 -50.5
t-86 -16.5zM185 40q37 0 74 16t77 49l-30 -36v116l23 -18q-26 8 -59 13t-68 5t-64 -15.5t-29 -59.5q0 -30 20 -50t56 -20zM399 -169q-34 0 -57 20.5t-23 53.5q0 25 13.5 47.5t39.5 47.5h43q-21 -22 -33 -42t-12 -38q0 -22 13.5 -32.5t33.5 -10.5q22 0 44 13v-40
q-17 -10 -31 -14.5t-31 -4.5z" />
    <glyph glyph-name="Cacute" unicode="&#x106;" horiz-adv-x="665" 
d="M344 -11q-66 0 -120 21.5t-93.5 60.5t-60.5 92.5t-21 118.5q0 84 36.5 150t103 103.5t156.5 37.5q54 0 97.5 -16.5t73 -46.5t42.5 -69h-22v122h60v-170l-54 -2q-31 65 -78.5 93.5t-114.5 28.5t-116 -30.5t-75.5 -82.5t-26.5 -117q0 -53 16.5 -96t46 -74t69 -47.5
t86.5 -16.5q42 0 81 13t70 42.5t48 77.5l60 -30q-24 -61 -64 -96.5t-91.5 -50.5t-108.5 -16zM326 647l53 145h84l-90 -145h-47z" />
    <glyph glyph-name="cacute" unicode="&#x107;" horiz-adv-x="469" 
d="M240 -10q-62 0 -110.5 27t-76 74t-27.5 108t26.5 107t73 72t106.5 26q58 0 96 -26t48 -64h-14v81h62v-141h-56q-9 43 -40.5 67.5t-78.5 24.5q-43 0 -76 -18.5t-51.5 -51.5t-18.5 -75q0 -45 18.5 -79.5t51 -54t74.5 -19.5q53 0 85.5 20.5t59.5 51.5l31 -45
q-29 -38 -75 -61.5t-108 -23.5zM221 477l53 145h84l-90 -145h-47z" />
    <glyph glyph-name="Ccircumflex" unicode="&#x108;" horiz-adv-x="665" 
d="M344 -11q-66 0 -120 21.5t-93.5 60.5t-60.5 92.5t-21 118.5q0 84 36.5 150t103 103.5t156.5 37.5q54 0 97.5 -16.5t73 -46.5t42.5 -69h-22v122h60v-170l-54 -2q-31 65 -78.5 93.5t-114.5 28.5t-116 -30.5t-75.5 -82.5t-26.5 -117q0 -53 16.5 -96t46 -74t69 -47.5
t86.5 -16.5q42 0 81 13t70 42.5t48 77.5l60 -30q-24 -61 -64 -96.5t-91.5 -50.5t-108.5 -16zM227 619l83 157h78l83 -157h-56l-66 125l-66 -125h-56z" />
    <glyph glyph-name="ccircumflex" unicode="&#x109;" horiz-adv-x="469" 
d="M240 -10q-62 0 -110.5 27t-76 74t-27.5 108t26.5 107t73 72t106.5 26q58 0 96 -26t48 -64h-14v81h62v-141h-56q-9 43 -40.5 67.5t-78.5 24.5q-43 0 -76 -18.5t-51.5 -51.5t-18.5 -75q0 -45 18.5 -79.5t51 -54t74.5 -19.5q53 0 85.5 20.5t59.5 51.5l31 -45
q-29 -38 -75 -61.5t-108 -23.5zM122 449l83 157h78l83 -157h-56l-66 125l-66 -125h-56z" />
    <glyph glyph-name="Cdotaccent" unicode="&#x10a;" horiz-adv-x="665" 
d="M344 -11q-66 0 -120 21.5t-93.5 60.5t-60.5 92.5t-21 118.5q0 84 36.5 150t103 103.5t156.5 37.5q54 0 97.5 -16.5t73 -46.5t42.5 -69h-22v122h60v-170l-54 -2q-31 65 -78.5 93.5t-114.5 28.5t-116 -30.5t-75.5 -82.5t-26.5 -117q0 -53 16.5 -96t46 -74t69 -47.5
t86.5 -16.5q42 0 81 13t70 42.5t48 77.5l60 -30q-24 -61 -64 -96.5t-91.5 -50.5t-108.5 -16zM349 630q-20 0 -34 13.5t-14 31.5q0 19 13.5 32t34.5 13q20 0 33.5 -12t13.5 -33q1 -17 -11.5 -31t-35.5 -14z" />
    <glyph glyph-name="cdotaccent" unicode="&#x10b;" horiz-adv-x="469" 
d="M240 -10q-62 0 -110.5 27t-76 74t-27.5 108t26.5 107t73 72t106.5 26q58 0 96 -26t48 -64h-14v81h62v-141h-56q-9 43 -40.5 67.5t-78.5 24.5q-43 0 -76 -18.5t-51.5 -51.5t-18.5 -75q0 -45 18.5 -79.5t51 -54t74.5 -19.5q53 0 85.5 20.5t59.5 51.5l31 -45
q-29 -38 -75 -61.5t-108 -23.5zM244 460q-20 0 -34 13.5t-14 31.5q0 19 13.5 32t34.5 13q20 0 33.5 -12t13.5 -33q1 -17 -11.5 -31t-35.5 -14z" />
    <glyph glyph-name="Ccaron" unicode="&#x10c;" horiz-adv-x="665" 
d="M344 -11q-66 0 -120 21.5t-93.5 60.5t-60.5 92.5t-21 118.5q0 84 36.5 150t103 103.5t156.5 37.5q54 0 97.5 -16.5t73 -46.5t42.5 -69h-22v122h60v-170l-54 -2q-31 65 -78.5 93.5t-114.5 28.5t-116 -30.5t-75.5 -82.5t-26.5 -117q0 -53 16.5 -96t46 -74t69 -47.5
t86.5 -16.5q42 0 81 13t70 42.5t48 77.5l60 -30q-24 -61 -64 -96.5t-91.5 -50.5t-108.5 -16zM314 618l-81 151h53l64 -109l62 109h52l-79 -151h-71z" />
    <glyph glyph-name="ccaron" unicode="&#x10d;" horiz-adv-x="469" 
d="M240 -10q-62 0 -110.5 27t-76 74t-27.5 108t26.5 107t73 72t106.5 26q58 0 96 -26t48 -64h-14v81h62v-141h-56q-9 43 -40.5 67.5t-78.5 24.5q-43 0 -76 -18.5t-51.5 -51.5t-18.5 -75q0 -45 18.5 -79.5t51 -54t74.5 -19.5q53 0 85.5 20.5t59.5 51.5l31 -45
q-29 -38 -75 -61.5t-108 -23.5zM209 448l-81 151h53l64 -109l62 109h52l-79 -151h-71z" />
    <glyph glyph-name="Dcaron" unicode="&#x10e;" horiz-adv-x="684" 
d="M40 0v53h78v457h-78v53h306q74 0 128 -23.5t90 -63t53.5 -89t17.5 -100.5q0 -62 -18 -114.5t-54 -91t-90 -60t-126 -21.5h-307zM200 53h139q56 0 96.5 18t66 49.5t37.5 74t12 90.5q0 43 -12.5 83t-38 72t-65 51t-93.5 19h-142v-457zM337 618l-81 151h53l64 -109l62 109
h52l-79 -151h-71z" />
    <glyph glyph-name="dcaron" unicode="&#x10f;" horiz-adv-x="554" 
d="M229 -11q-54 0 -99.5 24.5t-73.5 71.5t-28 112q0 67 26.5 112.5t70.5 69.5t96 24q42 0 83.5 -15.5t73.5 -43.5l-24 -9v186h-70v52h144v-520h62v-53h-136v52l23 -4q-29 -28 -65.5 -43.5t-82.5 -15.5zM245 45q39 0 72.5 15t61.5 40l-25 -34v260l25 -36q-31 27 -69.5 42
t-73.5 15q-38 0 -67.5 -18t-46.5 -52.5t-17 -85.5q0 -47 19 -79.5t50.5 -49.5t70.5 -17zM467 388v33q28 5 41.5 18.5t13.5 44.5h-54v89h96l-1 -90q1 -44 -22.5 -69.5t-73.5 -25.5z" />
    <glyph glyph-name="Dcroat" unicode="&#x110;" horiz-adv-x="684" 
d="M40 0v53h78v457h-78v53h306q74 0 128 -23.5t90 -63t53.5 -89t17.5 -100.5q0 -62 -18 -114.5t-54 -91t-90 -60t-126 -21.5h-307zM200 53h139q56 0 96.5 18t66 49.5t37.5 74t12 90.5q0 43 -12.5 83t-38 72t-65 51t-93.5 19h-142v-457zM40 261v56h239v-56h-239z" />
    <glyph glyph-name="dcroat" unicode="&#x111;" horiz-adv-x="513" 
d="M229 -11q-54 0 -99.5 24.5t-73.5 71.5t-28 112q0 67 26.5 112.5t70.5 69.5t96 24q42 0 83.5 -15.5t73.5 -43.5l-24 -9v239h74v-521h62v-53h-136v52l23 -4q-29 -28 -65.5 -43.5t-82.5 -15.5zM245 45q39 0 72.5 15t61.5 40l-25 -34v260l25 -36q-31 27 -69.5 42t-73.5 15
q-38 0 -67.5 -18t-46.5 -52.5t-17 -85.5q0 -47 19 -79.5t50.5 -49.5t70.5 -17zM240 460v45h250v-45h-250z" />
    <glyph glyph-name="Emacron" unicode="&#x112;" horiz-adv-x="582" 
d="M39 0v53h78v457h-78v53h490v-167h-63v114h-267v-191h175v66h41v-188h-41v67h-175v-211h272v117h63v-170h-495zM205 643v45h210v-45h-210z" />
    <glyph glyph-name="emacron" unicode="&#x113;" horiz-adv-x="461" 
d="M247 -12q-62 0 -112.5 26t-80 73t-29.5 109q0 64 28 110.5t75 72t105 25.5q60 0 103.5 -25t66.5 -71t23 -108v-19h-336l1 46h262q0 39 -15.5 66.5t-42.5 42t-62 14.5q-37 0 -67 -17.5t-47.5 -50t-17.5 -78.5q0 -49 18 -84.5t50.5 -55t74.5 -19.5q45 0 83 18t66 45l26 -45
q-27 -31 -70 -53t-102 -22zM131 473v45h210v-45h-210z" />
    <glyph glyph-name="Ebreve" unicode="&#x114;" horiz-adv-x="582" 
d="M39 0v53h78v457h-78v53h490v-167h-63v114h-267v-191h175v66h41v-188h-41v67h-175v-211h272v117h63v-170h-495zM310 620q-45 -1 -75 26.5t-35 73.5h49q11 -55 61 -55q23 0 39.5 14.5t20.5 40.5h50q-5 -46 -34.5 -72.5t-75.5 -27.5z" />
    <glyph glyph-name="ebreve" unicode="&#x115;" horiz-adv-x="461" 
d="M247 -12q-62 0 -112.5 26t-80 73t-29.5 109q0 64 28 110.5t75 72t105 25.5q60 0 103.5 -25t66.5 -71t23 -108v-19h-336l1 46h262q0 39 -15.5 66.5t-42.5 42t-62 14.5q-37 0 -67 -17.5t-47.5 -50t-17.5 -78.5q0 -49 18 -84.5t50.5 -55t74.5 -19.5q45 0 83 18t66 45l26 -45
q-27 -31 -70 -53t-102 -22zM236 450q-45 -1 -75 26.5t-35 73.5h49q11 -55 61 -55q23 0 39.5 14.5t20.5 40.5h50q-5 -46 -34.5 -72.5t-75.5 -27.5z" />
    <glyph glyph-name="Edotaccent" unicode="&#x116;" horiz-adv-x="582" 
d="M39 0v53h78v457h-78v53h490v-167h-63v114h-267v-191h175v66h41v-188h-41v67h-175v-211h272v117h63v-170h-495zM310 630q-20 0 -34 13.5t-14 31.5q0 19 13.5 32t34.5 13q20 0 33.5 -12t13.5 -33q1 -17 -11.5 -31t-35.5 -14z" />
    <glyph glyph-name="edotaccent" unicode="&#x117;" horiz-adv-x="461" 
d="M247 -12q-62 0 -112.5 26t-80 73t-29.5 109q0 64 28 110.5t75 72t105 25.5q60 0 103.5 -25t66.5 -71t23 -108v-19h-336l1 46h262q0 39 -15.5 66.5t-42.5 42t-62 14.5q-37 0 -67 -17.5t-47.5 -50t-17.5 -78.5q0 -49 18 -84.5t50.5 -55t74.5 -19.5q45 0 83 18t66 45l26 -45
q-27 -31 -70 -53t-102 -22zM236 460q-20 0 -34 13.5t-14 31.5q0 19 13.5 32t34.5 13q20 0 33.5 -12t13.5 -33q1 -17 -11.5 -31t-35.5 -14z" />
    <glyph glyph-name="Eogonek" unicode="&#x118;" horiz-adv-x="582" 
d="M39 0v53h78v457h-78v53h490v-167h-63v114h-267v-191h175v66h41v-188h-41v67h-175v-211h272v117h63v-170h-495zM458 -169q-34 0 -57 20.5t-23 53.5q0 25 13.5 47.5t39.5 47.5h43q-21 -22 -33 -42t-12 -38q0 -22 13.5 -32.5t33.5 -10.5q22 0 44 13v-40q-17 -10 -31 -14.5
t-31 -4.5z" />
    <glyph glyph-name="eogonek" unicode="&#x119;" horiz-adv-x="461" 
d="M247 -12q-62 0 -112.5 26t-80 73t-29.5 109q0 64 28 110.5t75 72t105 25.5q60 0 103.5 -25t66.5 -71t23 -108v-19h-336l1 46h262q0 39 -15.5 66.5t-42.5 42t-62 14.5q-37 0 -67 -17.5t-47.5 -50t-17.5 -78.5q0 -49 18 -84.5t50.5 -55t74.5 -19.5q45 0 83 18t66 45l26 -45
q-27 -31 -70 -53t-102 -22zM264 -163q-34 0 -57 20.5t-23 53.5q0 25 13.5 47.5t39.5 47.5h43q-21 -22 -33 -42t-12 -38q0 -22 13.5 -32.5t33.5 -10.5q22 0 44 13v-40q-17 -10 -31 -14.5t-31 -4.5z" />
    <glyph glyph-name="Ecaron" unicode="&#x11a;" horiz-adv-x="582" 
d="M39 0v53h78v457h-78v53h490v-167h-63v114h-267v-191h175v66h41v-188h-41v67h-175v-211h272v117h63v-170h-495zM275 618l-81 151h53l64 -109l62 109h52l-79 -151h-71z" />
    <glyph glyph-name="ecaron" unicode="&#x11b;" horiz-adv-x="461" 
d="M247 -12q-62 0 -112.5 26t-80 73t-29.5 109q0 64 28 110.5t75 72t105 25.5q60 0 103.5 -25t66.5 -71t23 -108v-19h-336l1 46h262q0 39 -15.5 66.5t-42.5 42t-62 14.5q-37 0 -67 -17.5t-47.5 -50t-17.5 -78.5q0 -49 18 -84.5t50.5 -55t74.5 -19.5q45 0 83 18t66 45l26 -45
q-27 -31 -70 -53t-102 -22zM201 448l-81 151h53l64 -109l62 109h52l-79 -151h-71z" />
    <glyph glyph-name="Gcircumflex" unicode="&#x11c;" horiz-adv-x="684" 
d="M356 -10q-97 0 -166 37.5t-105.5 104t-36.5 151.5q0 87 39 152t108 101.5t159 36.5q83 0 138.5 -35t84.5 -91h-30v116h65v-174h-58q-27 61 -78 93t-119 32t-117.5 -27.5t-76.5 -78t-27 -120.5q0 -73 27 -126.5t77.5 -82.5t118.5 -29q42 1 78 12t63.5 33t43 57t15.5 83
l45 -7h-164v56h199v-30q0 -60 -18.5 -109t-54.5 -83.5t-89 -53t-121 -18.5zM229 619l83 157h78l83 -157h-56l-66 125l-66 -125h-56z" />
    <glyph glyph-name="gcircumflex" unicode="&#x11d;" horiz-adv-x="513" 
d="M235 -188q-35 0 -73 6.5t-75 17.5l15 58q35 -10 68.5 -16.5t62.5 -6.5q61 0 95.5 28t34.5 87v70l23 4q-30 -31 -71.5 -47t-82.5 -16q-55 0 -101 24t-73 69.5t-27 109.5q0 66 26.5 111t72 68t100.5 23q40 0 84 -17t68 -46h-20v54h141v-53h-66v-349q0 -64 -26.5 -103.5
t-72 -57.5t-103.5 -18zM239 348q-38 0 -67.5 -17.5t-46.5 -51.5t-17 -84q0 -46 18.5 -78t50 -48.5t70.5 -16.5q35 0 73.5 15.5t66.5 43.5l-24 -37l-1 247l25 -32q-31 26 -71 42.5t-77 16.5zM124 449l83 157h78l83 -157h-56l-66 125l-66 -125h-56z" />
    <glyph glyph-name="Gbreve" unicode="&#x11e;" horiz-adv-x="684" 
d="M356 -10q-97 0 -166 37.5t-105.5 104t-36.5 151.5q0 87 39 152t108 101.5t159 36.5q83 0 138.5 -35t84.5 -91h-30v116h65v-174h-58q-27 61 -78 93t-119 32t-117.5 -27.5t-76.5 -78t-27 -120.5q0 -73 27 -126.5t77.5 -82.5t118.5 -29q42 1 78 12t63.5 33t43 57t15.5 83
l45 -7h-164v56h199v-30q0 -60 -18.5 -109t-54.5 -83.5t-89 -53t-121 -18.5zM351 620q-45 -1 -75 26.5t-35 73.5h49q11 -55 61 -55q23 0 39.5 14.5t20.5 40.5h50q-5 -46 -34.5 -72.5t-75.5 -27.5z" />
    <glyph glyph-name="gbreve" unicode="&#x11f;" horiz-adv-x="513" 
d="M235 -188q-35 0 -73 6.5t-75 17.5l15 58q35 -10 68.5 -16.5t62.5 -6.5q61 0 95.5 28t34.5 87v70l23 4q-30 -31 -71.5 -47t-82.5 -16q-55 0 -101 24t-73 69.5t-27 109.5q0 66 26.5 111t72 68t100.5 23q40 0 84 -17t68 -46h-20v54h141v-53h-66v-349q0 -64 -26.5 -103.5
t-72 -57.5t-103.5 -18zM239 348q-38 0 -67.5 -17.5t-46.5 -51.5t-17 -84q0 -46 18.5 -78t50 -48.5t70.5 -16.5q35 0 73.5 15.5t66.5 43.5l-24 -37l-1 247l25 -32q-31 26 -71 42.5t-77 16.5zM246 450q-45 -1 -75 26.5t-35 73.5h49q11 -55 61 -55q23 0 39.5 14.5t20.5 40.5h50
q-5 -46 -34.5 -72.5t-75.5 -27.5z" />
    <glyph glyph-name="Gdotaccent" unicode="&#x120;" horiz-adv-x="684" 
d="M356 -10q-97 0 -166 37.5t-105.5 104t-36.5 151.5q0 87 39 152t108 101.5t159 36.5q83 0 138.5 -35t84.5 -91h-30v116h65v-174h-58q-27 61 -78 93t-119 32t-117.5 -27.5t-76.5 -78t-27 -120.5q0 -73 27 -126.5t77.5 -82.5t118.5 -29q42 1 78 12t63.5 33t43 57t15.5 83
l45 -7h-164v56h199v-30q0 -60 -18.5 -109t-54.5 -83.5t-89 -53t-121 -18.5zM351 630q-20 0 -34 13.5t-14 31.5q0 19 13.5 32t34.5 13q20 0 33.5 -12t13.5 -33q1 -17 -11.5 -31t-35.5 -14z" />
    <glyph glyph-name="gdotaccent" unicode="&#x121;" horiz-adv-x="513" 
d="M235 -188q-35 0 -73 6.5t-75 17.5l15 58q35 -10 68.5 -16.5t62.5 -6.5q61 0 95.5 28t34.5 87v70l23 4q-30 -31 -71.5 -47t-82.5 -16q-55 0 -101 24t-73 69.5t-27 109.5q0 66 26.5 111t72 68t100.5 23q40 0 84 -17t68 -46h-20v54h141v-53h-66v-349q0 -64 -26.5 -103.5
t-72 -57.5t-103.5 -18zM239 348q-38 0 -67.5 -17.5t-46.5 -51.5t-17 -84q0 -46 18.5 -78t50 -48.5t70.5 -16.5q35 0 73.5 15.5t66.5 43.5l-24 -37l-1 247l25 -32q-31 26 -71 42.5t-77 16.5zM246 460q-20 0 -34 13.5t-14 31.5q0 19 13.5 32t34.5 13q20 0 33.5 -12t13.5 -33
q1 -17 -11.5 -31t-35.5 -14z" />
    <glyph glyph-name="uni0122" unicode="&#x122;" horiz-adv-x="684" 
d="M356 -10q-97 0 -166 37.5t-105.5 104t-36.5 151.5q0 87 39 152t108 101.5t159 36.5q83 0 138.5 -35t84.5 -91h-30v116h65v-174h-58q-27 61 -78 93t-119 32t-117.5 -27.5t-76.5 -78t-27 -120.5q0 -73 27 -126.5t77.5 -82.5t118.5 -29q42 1 78 12t63.5 33t43 57t15.5 83
l45 -7h-164v56h199v-30q0 -60 -18.5 -109t-54.5 -83.5t-89 -53t-121 -18.5zM299 -236v32q29 5 42.5 21.5t13.5 45.5h-54v87h95v-89q0 -45 -23.5 -71t-73.5 -26z" />
    <glyph glyph-name="uni0123" unicode="&#x123;" horiz-adv-x="513" 
d="M235 -188q-35 0 -73 6.5t-75 17.5l15 58q35 -10 68.5 -16.5t62.5 -6.5q61 0 95.5 28t34.5 87v70l23 4q-30 -31 -71.5 -47t-82.5 -16q-55 0 -101 24t-73 69.5t-27 109.5q0 66 26.5 111t72 68t100.5 23q40 0 84 -17t68 -46h-20v54h141v-53h-66v-349q0 -64 -26.5 -103.5
t-72 -57.5t-103.5 -18zM239 348q-38 0 -67.5 -17.5t-46.5 -51.5t-17 -84q0 -46 18.5 -78t50 -48.5t70.5 -16.5q35 0 73.5 15.5t66.5 43.5l-24 -37l-1 247l25 -32q-31 26 -71 42.5t-77 16.5zM294 656v-32q-29 -5 -42.5 -21.5t-13.5 -45.5h54v-87h-95v89q0 45 23.5 71t73.5 26
z" />
    <glyph glyph-name="Hcircumflex" unicode="&#x124;" horiz-adv-x="697" 
d="M39 0v53h78v457h-78v53h238v-53h-78v-192h300v192h-79v53h238v-53h-78v-457h78v-53h-238v53h79v208h-300v-208h78v-53h-238zM230 619l83 157h78l83 -157h-56l-66 125l-66 -125h-56z" />
    <glyph glyph-name="hcircumflex" unicode="&#x125;" horiz-adv-x="521" 
d="M12 0v53h73v468h-72v52h146v-238l-27 -5q43 32 86 52.5t89 20.5q54 0 92 -33.5t38 -97.5v-219h72v-53h-211v53h65v205q0 41 -19.5 64t-54.5 23q-38 0 -79 -18.5t-76 -45.5l25 36v-264h64v-53h-211zM0 630l83 157h78l83 -157h-56l-66 125l-66 -125h-56z" />
    <glyph glyph-name="Hbar" unicode="&#x126;" horiz-adv-x="697" 
d="M39 0v53h78v457h-78v53h238v-53h-78v-192h300v192h-79v53h238v-53h-78v-457h78v-53h-238v53h79v208h-300v-208h78v-53h-238zM55 440h589v-48h-589v48z" />
    <glyph glyph-name="hbar" unicode="&#x127;" horiz-adv-x="521" 
d="M12 0v53h73v468h-72v52h146v-238l-27 -5q43 32 86 52.5t89 20.5q54 0 92 -33.5t38 -97.5v-219h72v-53h-211v53h65v205q0 41 -19.5 64t-54.5 23q-38 0 -79 -18.5t-76 -45.5l25 36v-264h64v-53h-211zM17 654v45h210v-45h-210z" />
    <glyph glyph-name="Itilde" unicode="&#x128;" horiz-adv-x="339" 
d="M50 0v53h78v457h-78v53h239v-53h-79v-457h79v-53h-239zM233 640q-22 0 -46.5 9.5t-47 18.5t-39.5 9q-25 0 -31 -33h-31q4 46 23.5 67t49.5 21q19 0 42.5 -9t46 -18.5t37.5 -9.5t24 8t13 27h29q-3 -37 -19 -63.5t-51 -26.5z" />
    <glyph glyph-name="itilde" unicode="&#x129;" horiz-adv-x="267" 
d="M22 0v53h76v287h-75v53h148v-340h71v-53h-220zM188 470q-22 0 -46.5 9.5t-47 18.5t-39.5 9q-25 0 -31 -33h-31q4 46 23.5 67t49.5 21q19 0 42.5 -9t46 -18.5t37.5 -9.5t24 8t13 27h29q-3 -37 -19 -63.5t-51 -26.5z" />
    <glyph glyph-name="Imacron" unicode="&#x12a;" horiz-adv-x="339" 
d="M50 0v53h78v457h-78v53h239v-53h-79v-457h79v-53h-239zM65 643v45h210v-45h-210z" />
    <glyph glyph-name="imacron" unicode="&#x12b;" horiz-adv-x="267" 
d="M22 0v53h76v287h-75v53h148v-340h71v-53h-220zM20 473v45h210v-45h-210z" />
    <glyph glyph-name="Ibreve" unicode="&#x12c;" horiz-adv-x="339" 
d="M50 0v53h78v457h-78v53h239v-53h-79v-457h79v-53h-239zM170 620q-45 -1 -75 26.5t-35 73.5h49q11 -55 61 -55q23 0 39.5 14.5t20.5 40.5h50q-5 -46 -34.5 -72.5t-75.5 -27.5z" />
    <glyph glyph-name="ibreve" unicode="&#x12d;" horiz-adv-x="267" 
d="M22 0v53h76v287h-75v53h148v-340h71v-53h-220zM125 450q-45 -1 -75 26.5t-35 73.5h49q11 -55 61 -55q23 0 39.5 14.5t20.5 40.5h50q-5 -46 -34.5 -72.5t-75.5 -27.5z" />
    <glyph glyph-name="Iogonek" unicode="&#x12e;" horiz-adv-x="339" 
d="M50 0v53h78v457h-78v53h239v-53h-79v-457h79v-53h-239zM173 -169q-34 0 -57 20.5t-23 53.5q0 25 13.5 47.5t39.5 47.5h43q-21 -22 -33 -42t-12 -38q0 -22 13.5 -32.5t33.5 -10.5q22 0 44 13v-40q-17 -10 -31 -14.5t-31 -4.5z" />
    <glyph glyph-name="iogonek" unicode="&#x12f;" horiz-adv-x="267" 
d="M22 0v53h76v287h-75v53h148v-340h71v-53h-220zM119 -169q-34 0 -57 20.5t-23 53.5q0 25 13.5 47.5t39.5 47.5h43q-21 -22 -33 -42t-12 -38q0 -22 13.5 -32.5t33.5 -10.5q22 0 44 13v-40q-17 -10 -31 -14.5t-31 -4.5zM125 460q-20 0 -34 13.5t-14 31.5q0 19 13.5 32
t34.5 13q20 0 33.5 -12t13.5 -33q1 -17 -11.5 -31t-35.5 -14z" />
    <glyph glyph-name="Idotaccent" unicode="&#x130;" horiz-adv-x="339" 
d="M50 0v53h78v457h-78v53h239v-53h-79v-457h79v-53h-239zM170 630q-20 0 -34 13.5t-14 31.5q0 19 13.5 32t34.5 13q20 0 33.5 -12t13.5 -33q1 -17 -11.5 -31t-35.5 -14z" />
    <glyph glyph-name="dotlessi" unicode="&#x131;" horiz-adv-x="267" 
d="M22 0v53h76v287h-75v53h148v-340h71v-53h-220z" />
    <glyph glyph-name="IJ" unicode="&#x132;" horiz-adv-x="665" 
d="M50 0v53h78v457h-78v53h239v-53h-79v-457h79v-53h-239zM372 -106v64h60q37 0 47 22.5t10 59.5v470h-77v53h231v-53h-73v-469q0 -49 -12 -81.5t-39.5 -49t-73.5 -16.5h-73z" />
    <glyph glyph-name="ij" unicode="&#x133;" horiz-adv-x="516" 
d="M22 0v53h76v287h-75v53h148v-340h71v-53h-220zM125 479q-22 0 -38 14.5t-16 36.5t16 36.5t38 14.5q23 0 38.5 -14.5t15.5 -36.5t-15.5 -36.5t-38.5 -14.5zM272 -152v58h42q41 0 53 19.5t12 60.5v354h-80v53h155v-389q0 -44 -8.5 -79.5t-37.5 -56t-93 -20.5h-43zM401 479
q-22 0 -38 15t-16 37q0 21 16 35.5t38 14.5q23 0 38.5 -14.5t15.5 -35.5q0 -22 -15.5 -37t-38.5 -15z" />
    <glyph glyph-name="Jcircumflex" unicode="&#x134;" horiz-adv-x="326" 
d="M33 -106v64h60q37 0 47 22.5t10 59.5v470h-77v53h231v-53h-73v-469q0 -49 -12 -81.5t-39.5 -49t-73.5 -16.5h-73zM69 619l83 157h78l83 -157h-56l-66 125l-66 -125h-56z" />
    <glyph glyph-name="jcircumflex" unicode="&#x135;" horiz-adv-x="247" 
d="M5 -152v58h42q42 0 53.5 20.5t11.5 63.5v350h-82v53h156v-382q0 -33 -3 -62.5t-16 -52t-41 -35.5t-78 -13h-43zM-4 449l83 157h78l83 -157h-56l-66 125l-66 -125h-56z" />
    <glyph glyph-name="uni0136" unicode="&#x136;" horiz-adv-x="633" 
d="M39 0v53h78v457h-78v53h238v-53h-78v-215l232 215h-64v53h233v-53h-74l-244 -226l248 -231h75v-53h-241v53h66l-231 214v-214h78v-53h-238zM269 -236v32q29 5 42.5 21.5t13.5 45.5h-54v87h95v-89q0 -45 -23.5 -71t-73.5 -26z" />
    <glyph glyph-name="uni0137" unicode="&#x137;" horiz-adv-x="498" 
d="M26 0v53h74v468h-72v52h146v-363l170 130h-73v53h209v-53h-60l-170 -135l154 -152h78v-53h-115l-193 193v-140h64v-53h-212zM219 -236v32q29 5 42.5 21.5t13.5 45.5h-54v87h95v-89q0 -45 -23.5 -71t-73.5 -26z" />
    <glyph glyph-name="kgreenlandic" unicode="&#x138;" horiz-adv-x="521" 
d="M399 0l-222 193l173 147h-68v53h218v-53h-68l-169 -143l170 -144h71v-53h-105zM38 0v53h72v287h-71v53h145v-340h57v-53h-203z" />
    <glyph glyph-name="Lacute" unicode="&#x139;" horiz-adv-x="525" 
d="M39 0v53h78v457h-78v53h238v-53h-78v-457h234v173h66v-226h-460zM135 647l53 145h84l-90 -145h-47z" />
    <glyph glyph-name="lacute" unicode="&#x13a;" horiz-adv-x="260" 
d="M27 0v53h73v468h-71v52h145v-520h64v-53h-211zM114 658l53 145h84l-90 -145h-47z" />
    <glyph glyph-name="uni013B" unicode="&#x13b;" horiz-adv-x="525" 
d="M39 0v53h78v457h-78v53h238v-53h-78v-457h234v173h66v-226h-460zM228 -236v32q29 5 42.5 21.5t13.5 45.5h-54v87h95v-89q0 -45 -23.5 -71t-73.5 -26z" />
    <glyph glyph-name="uni013C" unicode="&#x13c;" horiz-adv-x="260" 
d="M27 0v53h73v468h-71v52h145v-520h64v-53h-211zM87 -236v32q29 5 42.5 21.5t13.5 45.5h-54v87h95v-89q0 -45 -23.5 -71t-73.5 -26z" />
    <glyph glyph-name="Lcaron" unicode="&#x13d;" horiz-adv-x="525" 
d="M39 0v53h78v457h-78v53h238v-53h-78v-457h234v173h66v-226h-460zM402 378v33q28 5 41.5 18.5t13.5 44.5h-54v89h96l-1 -90q1 -44 -22.5 -69.5t-73.5 -25.5z" />
    <glyph glyph-name="lcaron" unicode="&#x13e;" horiz-adv-x="314" 
d="M27 0v53h73v468h-71v52h145v-520h64v-53h-211zM213 388v33q28 5 41.5 18.5t13.5 44.5h-54v89h96l-1 -90q1 -44 -22.5 -69.5t-73.5 -25.5z" />
    <glyph glyph-name="Ldot" unicode="&#x13f;" horiz-adv-x="525" 
d="M39 0v53h78v457h-78v53h238v-53h-78v-457h234v173h66v-226h-460zM419 331q-23 0 -38.5 15t-15.5 36t15.5 35.5t38.5 14.5t38.5 -14.5t15.5 -35.5t-15.5 -36t-38.5 -15z" />
    <glyph glyph-name="ldot" unicode="&#x140;" horiz-adv-x="260" 
d="M27 0v53h73v468h-71v52h145v-520h64v-53h-211zM269 274q-23 0 -38.5 15t-15.5 36t15.5 35.5t38.5 14.5t38.5 -14.5t15.5 -35.5t-15.5 -36t-38.5 -15z" />
    <glyph glyph-name="Lslash" unicode="&#x141;" horiz-adv-x="525" 
d="M39 199v51l299 151v-54zM39 0v53h78v457h-78v53h238v-53h-78v-457h234v173h66v-226h-460z" />
    <glyph glyph-name="lslash" unicode="&#x142;" horiz-adv-x="254" 
d="M24 192v61l222 118v-64zM27 0v53h73v468h-71v52h145v-520h64v-53h-211z" />
    <glyph glyph-name="Nacute" unicode="&#x143;" horiz-adv-x="704" 
d="M41 0v53h80v457h-80v53h174l322 -455v402h-80v53h221v-53h-78v-510h-81l-336 479v-426h80v-53h-222zM328 647l53 145h84l-90 -145h-47z" />
    <glyph glyph-name="nacute" unicode="&#x144;" horiz-adv-x="517" 
d="M22 0v53h76v287h-76v53h149v-54l-28 -3q42 29 84 48t86 19q54 0 91.5 -33.5t37.5 -97.5v-219h73v-53h-211v53h65v205q0 41 -20 64t-55 23q-36 0 -73 -16t-79 -44l29 32v-264h71v-53h-220zM259 477l53 145h84l-90 -145h-47z" />
    <glyph glyph-name="uni0145" unicode="&#x145;" horiz-adv-x="704" 
d="M41 0v53h80v457h-80v53h174l322 -455v402h-80v53h221v-53h-78v-510h-81l-336 479v-426h80v-53h-222zM320 -236v32q29 5 42.5 21.5t13.5 45.5h-54v87h95v-89q0 -45 -23.5 -71t-73.5 -26z" />
    <glyph glyph-name="uni0146" unicode="&#x146;" horiz-adv-x="517" 
d="M22 0v53h76v287h-76v53h149v-54l-28 -3q42 29 84 48t86 19q54 0 91.5 -33.5t37.5 -97.5v-219h73v-53h-211v53h65v205q0 41 -20 64t-55 23q-36 0 -73 -16t-79 -44l29 32v-264h71v-53h-220zM231 -236v32q29 5 42.5 21.5t13.5 45.5h-54v87h95v-89q0 -45 -23.5 -71t-73.5 -26
z" />
    <glyph glyph-name="Ncaron" unicode="&#x147;" horiz-adv-x="704" 
d="M41 0v53h80v457h-80v53h174l322 -455v402h-80v53h221v-53h-78v-510h-81l-336 479v-426h80v-53h-222zM316 618l-81 151h53l64 -109l62 109h52l-79 -151h-71z" />
    <glyph glyph-name="ncaron" unicode="&#x148;" horiz-adv-x="517" 
d="M22 0v53h76v287h-76v53h149v-54l-28 -3q42 29 84 48t86 19q54 0 91.5 -33.5t37.5 -97.5v-219h73v-53h-211v53h65v205q0 41 -20 64t-55 23q-36 0 -73 -16t-79 -44l29 32v-264h71v-53h-220zM247 448l-81 151h53l64 -109l62 109h52l-79 -151h-71z" />
    <glyph glyph-name="napostrophe" unicode="&#x149;" horiz-adv-x="736" 
d="M100 443v33q28 5 41.5 18.5t13.5 44.5h-54v89h96l-1 -90q1 -44 -22.5 -69.5t-73.5 -25.5zM241 0v53h76v287h-76v53h149v-54l-28 -3q42 29 84 48t86 19q54 0 91.5 -33.5t37.5 -97.5v-219h73v-53h-211v53h65v205q0 41 -20 64t-55 23q-36 0 -73 -16t-79 -44l29 32v-264h71
v-53h-220z" />
    <glyph glyph-name="Eng" unicode="&#x14a;" horiz-adv-x="702" 
d="M391 -184v54h18q42 0 70 13.5t42.5 39.5t13.5 63l-354 493v-426h80v-53h-222v53h80v457h-80v53h174l322 -455v402h-80v53h221v-53h-78v-511q0 -63 -25 -103.5t-67 -60t-95 -19.5h-20z" />
    <glyph glyph-name="eng" unicode="&#x14b;" horiz-adv-x="517" 
d="M235 -159v53q71 0 102.5 28t31.5 87v249q0 41 -20 64t-55 23q-27 0 -59 -11t-64 -30v-251h71v-53h-220v53h76v287h-76v53h149v-39q35 22 71.5 35.5t70.5 13.5q54 0 91.5 -33.5t37.5 -97.5v-258q0 -48 -16 -81t-44 -53.5t-65.5 -29.5t-81.5 -9z" />
    <glyph glyph-name="Omacron" unicode="&#x14c;" horiz-adv-x="709" 
d="M354 -11q-69 0 -125.5 23t-96.5 63.5t-61.5 93t-21.5 111.5t21.5 112t61.5 93.5t96.5 64t125.5 23.5t125.5 -23.5t96.5 -64t61.5 -93.5t21.5 -112t-21.5 -111.5t-61.5 -93t-96 -63.5t-126 -23zM354 49q51 0 91.5 18t69 50t43 73.5t14.5 89.5t-14.5 90.5t-43 74.5
t-69 50.5t-91.5 18.5q-52 0 -92 -18.5t-68 -51t-42.5 -75t-14.5 -90.5t14.5 -89.5t42.5 -73.5t68 -49.5t92 -17.5zM248 643v45h210v-45h-210z" />
    <glyph glyph-name="omacron" unicode="&#x14d;" horiz-adv-x="476" 
d="M237 -12q-63 0 -111 26t-74.5 73t-26.5 110t26.5 109.5t74.5 72t111 25.5q64 0 112 -25.5t75 -72t27 -108.5q0 -63 -27 -110t-75 -73.5t-112 -26.5zM237 46q42 0 73 19t48 53t17 80q0 45 -17 78t-48 51.5t-73 18.5q-41 0 -71.5 -18.5t-47.5 -52t-17 -78.5t17 -79
t47.5 -53t71.5 -19zM132 473v45h210v-45h-210z" />
    <glyph glyph-name="Obreve" unicode="&#x14e;" horiz-adv-x="709" 
d="M354 -11q-69 0 -125.5 23t-96.5 63.5t-61.5 93t-21.5 111.5t21.5 112t61.5 93.5t96.5 64t125.5 23.5t125.5 -23.5t96.5 -64t61.5 -93.5t21.5 -112t-21.5 -111.5t-61.5 -93t-96 -63.5t-126 -23zM354 49q51 0 91.5 18t69 50t43 73.5t14.5 89.5t-14.5 90.5t-43 74.5
t-69 50.5t-91.5 18.5q-52 0 -92 -18.5t-68 -51t-42.5 -75t-14.5 -90.5t14.5 -89.5t42.5 -73.5t68 -49.5t92 -17.5zM353 620q-45 -1 -75 26.5t-35 73.5h49q11 -55 61 -55q23 0 39.5 14.5t20.5 40.5h50q-5 -46 -34.5 -72.5t-75.5 -27.5z" />
    <glyph glyph-name="obreve" unicode="&#x14f;" horiz-adv-x="476" 
d="M237 -12q-63 0 -111 26t-74.5 73t-26.5 110t26.5 109.5t74.5 72t111 25.5q64 0 112 -25.5t75 -72t27 -108.5q0 -63 -27 -110t-75 -73.5t-112 -26.5zM237 46q42 0 73 19t48 53t17 80q0 45 -17 78t-48 51.5t-73 18.5q-41 0 -71.5 -18.5t-47.5 -52t-17 -78.5t17 -79
t47.5 -53t71.5 -19zM237 450q-45 -1 -75 26.5t-35 73.5h49q11 -55 61 -55q23 0 39.5 14.5t20.5 40.5h50q-5 -46 -34.5 -72.5t-75.5 -27.5z" />
    <glyph glyph-name="Ohungarumlaut" unicode="&#x150;" horiz-adv-x="709" 
d="M354 -11q-69 0 -125.5 23t-96.5 63.5t-61.5 93t-21.5 111.5t21.5 112t61.5 93.5t96.5 64t125.5 23.5t125.5 -23.5t96.5 -64t61.5 -93.5t21.5 -112t-21.5 -111.5t-61.5 -93t-96 -63.5t-126 -23zM354 49q51 0 91.5 18t69 50t43 73.5t14.5 89.5t-14.5 90.5t-43 74.5
t-69 50.5t-91.5 18.5q-52 0 -92 -18.5t-68 -51t-42.5 -75t-14.5 -90.5t14.5 -89.5t42.5 -73.5t68 -49.5t92 -17.5zM264 647l56 152h84l-94 -152h-46zM399 647l56 152h84l-93 -152h-47z" />
    <glyph glyph-name="ohungarumlaut" unicode="&#x151;" horiz-adv-x="476" 
d="M237 -12q-63 0 -111 26t-74.5 73t-26.5 110t26.5 109.5t74.5 72t111 25.5q64 0 112 -25.5t75 -72t27 -108.5q0 -63 -27 -110t-75 -73.5t-112 -26.5zM237 46q42 0 73 19t48 53t17 80q0 45 -17 78t-48 51.5t-73 18.5q-41 0 -71.5 -18.5t-47.5 -52t-17 -78.5t17 -79
t47.5 -53t71.5 -19zM148 477l56 152h84l-94 -152h-46zM283 477l56 152h84l-93 -152h-47z" />
    <glyph glyph-name="OE" unicode="&#x152;" horiz-adv-x="952" 
d="M363 0q-97 0 -167.5 34.5t-108.5 98t-38 150.5t38 149.5t108.5 96.5t166.5 34h537v-169h-63v116h-266v-197h177v65h41v-185h-41v66h-177v-207h271v122h63v-174h-541zM369 52h120v458h-121q-71 0 -123 -27.5t-80.5 -78.5t-28.5 -122q0 -70 28.5 -122t80.5 -80t124 -28z
" />
    <glyph glyph-name="oe" unicode="&#x153;" horiz-adv-x="806" 
d="M234 -11q-62 0 -109.5 27t-73.5 73.5t-26 106.5t26.5 107t74 73.5t108.5 26.5q59 0 104.5 -26t70.5 -72q26 48 71.5 73t99.5 25q60 0 102.5 -25t65.5 -71t23 -108v-19h-327q3 -41 21.5 -72t50.5 -48t74 -17q37 0 74 16t62 42l37 -39q-29 -35 -74.5 -54t-101.5 -19
q-58 0 -105.5 25.5t-73.5 71.5q-25 -44 -70 -70.5t-104 -26.5zM234 45q42 0 72.5 19t47.5 53.5t17 78.5t-17 78t-47.5 53t-72.5 19q-41 0 -72 -19t-48 -53t-17 -78t17 -78.5t48 -53.5t72 -19zM445 224h259q0 40 -16 67.5t-43.5 42.5t-62.5 15q-39 0 -68 -15.5t-46.5 -43.5
t-22.5 -66z" />
    <glyph glyph-name="Racute" unicode="&#x154;" horiz-adv-x="619" 
d="M39 0v53h78v457h-78v53h296q59 0 102 -16.5t66 -49t23 -81.5q0 -39 -14.5 -70t-46.5 -51.5t-84 -28.5l129 -213h83v-53h-139l-151 258h-69v55h88q49 0 75.5 15.5t37 39t10.5 47.5q0 26 -11.5 47.5t-35.5 34.5t-62 13h-137v-457h78v-53h-238zM269 647l53 145h84l-90 -145
h-47z" />
    <glyph glyph-name="racute" unicode="&#x155;" horiz-adv-x="386" 
d="M35 0v53h76v287h-76v53h149v-117l-14 2q11 45 28.5 71t40 37.5t46.5 11.5q20 0 40 -5t40 -15l-18 -67q-17 11 -34 16.5t-35 5.5q-38 0 -65.5 -31.5t-27.5 -90.5l-1 -158h70v-53h-219zM204 477l53 145h84l-90 -145h-47z" />
    <glyph glyph-name="uni0156" unicode="&#x156;" horiz-adv-x="619" 
d="M39 0v53h78v457h-78v53h296q59 0 102 -16.5t66 -49t23 -81.5q0 -39 -14.5 -70t-46.5 -51.5t-84 -28.5l129 -213h83v-53h-139l-151 258h-69v55h88q49 0 75.5 15.5t37 39t10.5 47.5q0 26 -11.5 47.5t-35.5 34.5t-62 13h-137v-457h78v-53h-238zM276 -236v32q29 5 42.5 21.5
t13.5 45.5h-54v87h95v-89q0 -45 -23.5 -71t-73.5 -26z" />
    <glyph glyph-name="uni0157" unicode="&#x157;" horiz-adv-x="386" 
d="M35 0v53h76v287h-76v53h149v-117l-14 2q11 45 28.5 71t40 37.5t46.5 11.5q20 0 40 -5t40 -15l-18 -67q-17 11 -34 16.5t-35 5.5q-38 0 -65.5 -31.5t-27.5 -90.5l-1 -158h70v-53h-219zM100 -236v32q29 5 42.5 21.5t13.5 45.5h-54v87h95v-89q0 -45 -23.5 -71t-73.5 -26z
" />
    <glyph glyph-name="Rcaron" unicode="&#x158;" horiz-adv-x="619" 
d="M39 0v53h78v457h-78v53h296q59 0 102 -16.5t66 -49t23 -81.5q0 -39 -14.5 -70t-46.5 -51.5t-84 -28.5l129 -213h83v-53h-139l-151 258h-69v55h88q49 0 75.5 15.5t37 39t10.5 47.5q0 26 -11.5 47.5t-35.5 34.5t-62 13h-137v-457h78v-53h-238zM257 618l-81 151h53l64 -109
l62 109h52l-79 -151h-71z" />
    <glyph glyph-name="rcaron" unicode="&#x159;" horiz-adv-x="386" 
d="M35 0v53h76v287h-76v53h149v-117l-14 2q11 45 28.5 71t40 37.5t46.5 11.5q20 0 40 -5t40 -15l-18 -67q-17 11 -34 16.5t-35 5.5q-38 0 -65.5 -31.5t-27.5 -90.5l-1 -158h70v-53h-219zM192 448l-81 151h53l64 -109l62 109h52l-79 -151h-71z" />
    <glyph glyph-name="Sacute" unicode="&#x15a;" horiz-adv-x="522" 
d="M300 -10q-40 0 -74.5 12.5t-60.5 35t-42 52.5h13v-90h-65v190h60q4 -41 25 -73t57 -50.5t84 -18.5q52 0 81 24.5t29 70.5q0 37 -13 57.5t-43 32t-80 19.5l-24 4q-81 14 -130 53.5t-49 110.5q0 50 22 84t62 52t93 18q59 0 104 -26t61 -71h-21v86h64v-159h-59q-4 24 -17 50
t-43 44t-85 18q-52 0 -80 -24.5t-28 -63.5q0 -43 31 -66t90 -34l23 -4q66 -11 109 -30t64.5 -52t21.5 -87q0 -44 -21 -81.5t-61 -60.5t-98 -23zM250 647l53 145h84l-90 -145h-47z" />
    <glyph glyph-name="sacute" unicode="&#x15b;" horiz-adv-x="432" 
d="M244 -10q-31 0 -59.5 8t-49.5 22t-32 33l15 -9v-44h-58v136h52l6 -65l-14 47q11 -37 49.5 -57t80.5 -20q38 0 63.5 15t25.5 42q0 32 -21.5 44.5t-68.5 22.5l-55 12q-55 14 -87 37.5t-32 78.5q0 53 41.5 81.5t103.5 28.5q24 0 50.5 -6.5t48.5 -19.5t31 -32l-15 5v45h59
v-135h-52l-13 95l17 -66q-4 18 -22.5 31.5t-43 21.5t-48.5 8q-32 0 -57.5 -13t-25.5 -42q0 -22 17.5 -34t57.5 -22l51 -11q38 -9 68.5 -21.5t48.5 -36t18 -66.5q0 -39 -21.5 -64.5t-56 -37.5t-72.5 -12zM207 477l53 145h84l-90 -145h-47z" />
    <glyph glyph-name="Scircumflex" unicode="&#x15c;" horiz-adv-x="522" 
d="M300 -10q-40 0 -74.5 12.5t-60.5 35t-42 52.5h13v-90h-65v190h60q4 -41 25 -73t57 -50.5t84 -18.5q52 0 81 24.5t29 70.5q0 37 -13 57.5t-43 32t-80 19.5l-24 4q-81 14 -130 53.5t-49 110.5q0 50 22 84t62 52t93 18q59 0 104 -26t61 -71h-21v86h64v-159h-59q-4 24 -17 50
t-43 44t-85 18q-52 0 -80 -24.5t-28 -63.5q0 -43 31 -66t90 -34l23 -4q66 -11 109 -30t64.5 -52t21.5 -87q0 -44 -21 -81.5t-61 -60.5t-98 -23zM151 619l83 157h78l83 -157h-56l-66 125l-66 -125h-56z" />
    <glyph glyph-name="scircumflex" unicode="&#x15d;" horiz-adv-x="432" 
d="M244 -10q-31 0 -59.5 8t-49.5 22t-32 33l15 -9v-44h-58v136h52l6 -65l-14 47q11 -37 49.5 -57t80.5 -20q38 0 63.5 15t25.5 42q0 32 -21.5 44.5t-68.5 22.5l-55 12q-55 14 -87 37.5t-32 78.5q0 53 41.5 81.5t103.5 28.5q24 0 50.5 -6.5t48.5 -19.5t31 -32l-15 5v45h59
v-135h-52l-13 95l17 -66q-4 18 -22.5 31.5t-43 21.5t-48.5 8q-32 0 -57.5 -13t-25.5 -42q0 -22 17.5 -34t57.5 -22l51 -11q38 -9 68.5 -21.5t48.5 -36t18 -66.5q0 -39 -21.5 -64.5t-56 -37.5t-72.5 -12zM108 449l83 157h78l83 -157h-56l-66 125l-66 -125h-56z" />
    <glyph glyph-name="Scedilla" unicode="&#x15e;" horiz-adv-x="522" 
d="M300 -10q-40 0 -74.5 12.5t-60.5 35t-42 52.5h13v-90h-65v190h60q4 -41 25 -73t57 -50.5t84 -18.5q52 0 81 24.5t29 70.5q0 37 -13 57.5t-43 32t-80 19.5l-24 4q-81 14 -130 53.5t-49 110.5q0 50 22 84t62 52t93 18q59 0 104 -26t61 -71h-21v86h64v-159h-59q-4 24 -17 50
t-43 44t-85 18q-52 0 -80 -24.5t-28 -63.5q0 -43 31 -66t90 -34l23 -4q66 -11 109 -30t64.5 -52t21.5 -87q0 -44 -21 -81.5t-61 -60.5t-98 -23zM297 -175q-43 0 -87 19v29q16 -4 30.5 -7t26.5 -3q17 0 27.5 6.5t10.5 19.5t-13.5 21.5t-43.5 9.5l31 80h33l-16 -58
q38 -4 55 -21t17 -39q0 -31 -21 -44t-50 -13z" />
    <glyph glyph-name="scedilla" unicode="&#x15f;" horiz-adv-x="432" 
d="M244 -10q-31 0 -59.5 8t-49.5 22t-32 33l15 -9v-44h-58v136h52l6 -65l-14 47q11 -37 49.5 -57t80.5 -20q38 0 63.5 15t25.5 42q0 32 -21.5 44.5t-68.5 22.5l-55 12q-55 14 -87 37.5t-32 78.5q0 53 41.5 81.5t103.5 28.5q24 0 50.5 -6.5t48.5 -19.5t31 -32l-15 5v45h59
v-135h-52l-13 95l17 -66q-4 18 -22.5 31.5t-43 21.5t-48.5 8q-32 0 -57.5 -13t-25.5 -42q0 -22 17.5 -34t57.5 -22l51 -11q38 -9 68.5 -21.5t48.5 -36t18 -66.5q0 -39 -21.5 -64.5t-56 -37.5t-72.5 -12zM233 -175q-43 0 -87 19v29q16 -4 30.5 -7t26.5 -3q17 0 27.5 6.5
t10.5 19.5t-13.5 21.5t-43.5 9.5l31 80h33l-16 -58q38 -4 55 -21t17 -39q0 -31 -21 -44t-50 -13z" />
    <glyph glyph-name="Scaron" unicode="&#x160;" horiz-adv-x="522" 
d="M300 -10q-40 0 -74.5 12.5t-60.5 35t-42 52.5h13v-90h-65v190h60q4 -41 25 -73t57 -50.5t84 -18.5q52 0 81 24.5t29 70.5q0 37 -13 57.5t-43 32t-80 19.5l-24 4q-81 14 -130 53.5t-49 110.5q0 50 22 84t62 52t93 18q59 0 104 -26t61 -71h-21v86h64v-159h-59q-4 24 -17 50
t-43 44t-85 18q-52 0 -80 -24.5t-28 -63.5q0 -43 31 -66t90 -34l23 -4q66 -11 109 -30t64.5 -52t21.5 -87q0 -44 -21 -81.5t-61 -60.5t-98 -23zM238 618l-81 151h53l64 -109l62 109h52l-79 -151h-71z" />
    <glyph glyph-name="scaron" unicode="&#x161;" horiz-adv-x="432" 
d="M244 -10q-31 0 -59.5 8t-49.5 22t-32 33l15 -9v-44h-58v136h52l6 -65l-14 47q11 -37 49.5 -57t80.5 -20q38 0 63.5 15t25.5 42q0 32 -21.5 44.5t-68.5 22.5l-55 12q-55 14 -87 37.5t-32 78.5q0 53 41.5 81.5t103.5 28.5q24 0 50.5 -6.5t48.5 -19.5t31 -32l-15 5v45h59
v-135h-52l-13 95l17 -66q-4 18 -22.5 31.5t-43 21.5t-48.5 8q-32 0 -57.5 -13t-25.5 -42q0 -22 17.5 -34t57.5 -22l51 -11q38 -9 68.5 -21.5t48.5 -36t18 -66.5q0 -39 -21.5 -64.5t-56 -37.5t-72.5 -12zM195 448l-81 151h53l64 -109l62 109h52l-79 -151h-71z" />
    <glyph glyph-name="uni0162" unicode="&#x162;" horiz-adv-x="559" 
d="M162 0v53h78v457h-154v-143h-61v196h508v-196h-61v143h-151v-457h78v-53h-237zM283 -175q-43 0 -87 19v29q16 -4 30.5 -7t26.5 -3q17 0 27.5 6.5t10.5 19.5t-13.5 21.5t-43.5 9.5l31 80h33l-16 -58q38 -4 55 -21t17 -39q0 -31 -21 -44t-50 -13z" />
    <glyph glyph-name="uni0163" unicode="&#x163;" horiz-adv-x="301" 
d="M199 0q-56 0 -85 28.5t-29 87.5v224h-65v53h65v134l74 29v-163h104v-53h-104v-220q0 -37 12 -52t41 -15h60v-53h-73zM193 -174q-43 0 -87 19v29q16 -4 30.5 -7t26.5 -3q17 0 27.5 6.5t10.5 19.5t-13.5 21.5t-43.5 9.5l31 80h33l-16 -58q38 -4 55 -21t17 -39
q0 -31 -21 -44t-50 -13z" />
    <glyph glyph-name="Tcaron" unicode="&#x164;" horiz-adv-x="559" 
d="M162 0v53h78v457h-154v-143h-61v196h508v-196h-61v143h-151v-457h78v-53h-237zM243 618l-81 151h53l64 -109l62 109h52l-79 -151h-71z" />
    <glyph glyph-name="tcaron" unicode="&#x165;" horiz-adv-x="301" 
d="M199 0q-56 0 -85 28.5t-29 87.5v224h-65v53h65v134l74 29v-163h104v-53h-104v-220q0 -37 12 -52t41 -15h60v-53h-73zM203 433v33q28 5 41.5 18.5t13.5 44.5h-54v89h96l-1 -90q1 -44 -22.5 -69.5t-73.5 -25.5z" />
    <glyph glyph-name="Tbar" unicode="&#x166;" horiz-adv-x="559" 
d="M162 0v53h78v457h-154v-143h-61v196h508v-196h-61v143h-151v-457h78v-53h-237zM174 261v45h210v-45h-210z" />
    <glyph glyph-name="tbar" unicode="&#x167;" horiz-adv-x="301" 
d="M20 199v45h230v-45h-230zM199 0q-56 0 -85 28.5t-29 87.5v224h-65v53h65v134l74 29v-163h104v-53h-104v-220q0 -37 12 -52t41 -15h60v-53h-73z" />
    <glyph glyph-name="Utilde" unicode="&#x168;" horiz-adv-x="670" 
d="M337 -10q-84 0 -135.5 28t-75.5 76.5t-24 109.5v306h-75v53h231v-53h-75v-317q0 -44 18.5 -76.5t53.5 -49.5t84 -17q53 0 90 17t56.5 49.5t19.5 77.5v316h-74v53h219v-53h-76v-313q0 -70 -30.5 -115.5t-83.5 -68.5t-123 -23zM407 640q-22 0 -46.5 9.5t-47 18.5t-39.5 9
q-25 0 -31 -33h-31q4 46 23.5 67t49.5 21q19 0 42.5 -9t46 -18.5t37.5 -9.5t24 8t13 27h29q-3 -37 -19 -63.5t-51 -26.5z" />
    <glyph glyph-name="utilde" unicode="&#x169;" horiz-adv-x="510" 
d="M208 -10q-46 0 -75 18t-42.5 48t-13.5 66v218h-66v53h140v-263q0 -37 18 -59t56 -22q44 0 81 21t70 58l-23 -39v251h-71v53h144v-340h73v-53h-144l-3 65l26 5q-39 -37 -81.5 -58.5t-88.5 -21.5zM302 470q-22 0 -46.5 9.5t-47 18.5t-39.5 9q-25 0 -31 -33h-31
q4 46 23.5 67t49.5 21q19 0 42.5 -9t46 -18.5t37.5 -9.5t24 8t13 27h29q-3 -37 -19 -63.5t-51 -26.5z" />
    <glyph glyph-name="Umacron" unicode="&#x16a;" horiz-adv-x="670" 
d="M337 -10q-84 0 -135.5 28t-75.5 76.5t-24 109.5v306h-75v53h231v-53h-75v-317q0 -44 18.5 -76.5t53.5 -49.5t84 -17q53 0 90 17t56.5 49.5t19.5 77.5v316h-74v53h219v-53h-76v-313q0 -70 -30.5 -115.5t-83.5 -68.5t-123 -23zM239 643v45h210v-45h-210z" />
    <glyph glyph-name="umacron" unicode="&#x16b;" horiz-adv-x="510" 
d="M208 -10q-46 0 -75 18t-42.5 48t-13.5 66v218h-66v53h140v-263q0 -37 18 -59t56 -22q44 0 81 21t70 58l-23 -39v251h-71v53h144v-340h73v-53h-144l-3 65l26 5q-39 -37 -81.5 -58.5t-88.5 -21.5zM134 473v45h210v-45h-210z" />
    <glyph glyph-name="Ubreve" unicode="&#x16c;" horiz-adv-x="670" 
d="M337 -10q-84 0 -135.5 28t-75.5 76.5t-24 109.5v306h-75v53h231v-53h-75v-317q0 -44 18.5 -76.5t53.5 -49.5t84 -17q53 0 90 17t56.5 49.5t19.5 77.5v316h-74v53h219v-53h-76v-313q0 -70 -30.5 -115.5t-83.5 -68.5t-123 -23zM344 620q-45 -1 -75 26.5t-35 73.5h49
q11 -55 61 -55q23 0 39.5 14.5t20.5 40.5h50q-5 -46 -34.5 -72.5t-75.5 -27.5z" />
    <glyph glyph-name="ubreve" unicode="&#x16d;" horiz-adv-x="510" 
d="M208 -10q-46 0 -75 18t-42.5 48t-13.5 66v218h-66v53h140v-263q0 -37 18 -59t56 -22q44 0 81 21t70 58l-23 -39v251h-71v53h144v-340h73v-53h-144l-3 65l26 5q-39 -37 -81.5 -58.5t-88.5 -21.5zM239 450q-45 -1 -75 26.5t-35 73.5h49q11 -55 61 -55q23 0 39.5 14.5
t20.5 40.5h50q-5 -46 -34.5 -72.5t-75.5 -27.5z" />
    <glyph glyph-name="Uring" unicode="&#x16e;" horiz-adv-x="670" 
d="M337 -10q-84 0 -135.5 28t-75.5 76.5t-24 109.5v306h-75v53h231v-53h-75v-317q0 -44 18.5 -76.5t53.5 -49.5t84 -17q53 0 90 17t56.5 49.5t19.5 77.5v316h-74v53h219v-53h-76v-313q0 -70 -30.5 -115.5t-83.5 -68.5t-123 -23zM344 598q-37 0 -58 22t-21 53t21 52t58 21
q38 0 58.5 -21t20.5 -52t-21 -53t-58 -22zM344 629q21 0 32.5 13t11.5 31t-11.5 30.5t-32.5 12.5t-33 -12.5t-12 -30.5t12 -31t33 -13z" />
    <glyph glyph-name="uring" unicode="&#x16f;" horiz-adv-x="510" 
d="M208 -10q-46 0 -75 18t-42.5 48t-13.5 66v218h-66v53h140v-263q0 -37 18 -59t56 -22q44 0 81 21t70 58l-23 -39v251h-71v53h144v-340h73v-53h-144l-3 65l26 5q-39 -37 -81.5 -58.5t-88.5 -21.5zM239 428q-37 0 -58 22t-21 53t21 52t58 21q38 0 58.5 -21t20.5 -52t-21 -53
t-58 -22zM239 459q21 0 32.5 13t11.5 31t-11.5 30.5t-32.5 12.5t-33 -12.5t-12 -30.5t12 -31t33 -13z" />
    <glyph glyph-name="Uhungarumlaut" unicode="&#x170;" horiz-adv-x="670" 
d="M337 -10q-84 0 -135.5 28t-75.5 76.5t-24 109.5v306h-75v53h231v-53h-75v-317q0 -44 18.5 -76.5t53.5 -49.5t84 -17q53 0 90 17t56.5 49.5t19.5 77.5v316h-74v53h219v-53h-76v-313q0 -70 -30.5 -115.5t-83.5 -68.5t-123 -23zM255 647l56 152h84l-94 -152h-46zM390 647
l56 152h84l-93 -152h-47z" />
    <glyph glyph-name="uhungarumlaut" unicode="&#x171;" horiz-adv-x="510" 
d="M208 -10q-46 0 -75 18t-42.5 48t-13.5 66v218h-66v53h140v-263q0 -37 18 -59t56 -22q44 0 81 21t70 58l-23 -39v251h-71v53h144v-340h73v-53h-144l-3 65l26 5q-39 -37 -81.5 -58.5t-88.5 -21.5zM150 477l56 152h84l-94 -152h-46zM285 477l56 152h84l-93 -152h-47z" />
    <glyph glyph-name="Uogonek" unicode="&#x172;" horiz-adv-x="670" 
d="M337 -10q-84 0 -135.5 28t-75.5 76.5t-24 109.5v306h-75v53h231v-53h-75v-317q0 -44 18.5 -76.5t53.5 -49.5t84 -17q53 0 90 17t56.5 49.5t19.5 77.5v316h-74v53h219v-53h-76v-313q0 -70 -30.5 -115.5t-83.5 -68.5t-123 -23zM347 -169q-34 0 -57 20.5t-23 53.5
q0 25 13.5 47.5t39.5 47.5h43q-21 -22 -33 -42t-12 -38q0 -22 13.5 -32.5t33.5 -10.5q22 0 44 13v-40q-17 -10 -31 -14.5t-31 -4.5z" />
    <glyph glyph-name="uogonek" unicode="&#x173;" horiz-adv-x="510" 
d="M208 -10q-46 0 -75 18t-42.5 48t-13.5 66v218h-66v53h140v-263q0 -37 18 -59t56 -22q44 0 81 21t70 58l-23 -39v251h-71v53h144v-340h73v-53h-144l-3 65l26 5q-39 -37 -81.5 -58.5t-88.5 -21.5zM443 -159q-34 0 -57 20.5t-23 53.5q0 25 13.5 47.5t39.5 47.5h43
q-21 -22 -33 -42t-12 -38q0 -22 13.5 -32.5t33.5 -10.5q22 0 44 13v-40q-17 -10 -31 -14.5t-31 -4.5z" />
    <glyph glyph-name="Wcircumflex" unicode="&#x174;" horiz-adv-x="922" 
d="M253 0l-160 510h-69v53h220v-53h-73l122 -406l145 449h59l146 -449l119 406h-73v53h210v-53h-70l-155 -510h-70l-141 426l-140 -426h-70zM346 609l83 157h78l83 -157h-56l-66 125l-66 -125h-56z" />
    <glyph glyph-name="wcircumflex" unicode="&#x175;" horiz-adv-x="715" 
d="M185 0l-124 340h-52v53h178v-53h-54l93 -267l93 267h-56v53h193v-53h-57l97 -268l86 268h-55v53h177v-53h-55l-118 -340h-72l-101 279l-101 -279h-72zM238 449l83 157h78l83 -157h-56l-66 125l-66 -125h-56z" />
    <glyph glyph-name="Ycircumflex" unicode="&#x176;" horiz-adv-x="632" 
d="M195 0v53h82v188l-188 269h-75v53h234v-53h-71l148 -216l143 216h-72v53h222v-53h-77l-183 -268v-189h83v-53h-246zM200 619l83 157h78l83 -157h-56l-66 125l-66 -125h-56z" />
    <glyph glyph-name="ycircumflex" unicode="&#x177;" horiz-adv-x="519" 
d="M101 -159v60h45q26 0 42 4t27.5 18t21.5 44l21 58h-31l-146 315h-73v53h206v-53h-58l118 -267l105 267h-68v53h205v-53h-64l-146 -363q-18 -46 -33.5 -76t-42.5 -45t-78 -15h-51zM141 449l83 157h78l83 -157h-56l-66 125l-66 -125h-56z" />
    <glyph glyph-name="Ydieresis" unicode="&#x178;" horiz-adv-x="632" 
d="M195 0v53h82v188l-188 269h-75v53h234v-53h-71l148 -216l143 216h-72v53h222v-53h-77l-183 -268v-189h83v-53h-246zM226 627q-20 0 -32.5 12t-12.5 31q0 20 12.5 31.5t32.5 11.5t32.5 -11.5t12.5 -31.5q0 -19 -12.5 -31t-32.5 -12zM418 627q-20 0 -32 12t-12 31
q0 20 12 31.5t32 11.5t32.5 -11.5t12.5 -31.5q0 -19 -12.5 -31t-32.5 -12z" />
    <glyph glyph-name="Zacute" unicode="&#x179;" horiz-adv-x="576" 
d="M62 0v57l355 453h-280v-133h-60v186h439v-51l-358 -459h305v142h60v-195h-461zM274 647l53 145h84l-90 -145h-47z" />
    <glyph glyph-name="zacute" unicode="&#x17a;" horiz-adv-x="438" 
d="M51 0v52l253 290h-192v-81h-56v132h334v-55l-253 -288h201v90h58v-140h-345zM205 477l53 145h84l-90 -145h-47z" />
    <glyph glyph-name="Zdotaccent" unicode="&#x17b;" horiz-adv-x="576" 
d="M62 0v57l355 453h-280v-133h-60v186h439v-51l-358 -459h305v142h60v-195h-461zM297 630q-20 0 -34 13.5t-14 31.5q0 19 13.5 32t34.5 13q20 0 33.5 -12t13.5 -33q1 -17 -11.5 -31t-35.5 -14z" />
    <glyph glyph-name="zdotaccent" unicode="&#x17c;" horiz-adv-x="438" 
d="M51 0v52l253 290h-192v-81h-56v132h334v-55l-253 -288h201v90h58v-140h-345zM228 460q-20 0 -34 13.5t-14 31.5q0 19 13.5 32t34.5 13q20 0 33.5 -12t13.5 -33q1 -17 -11.5 -31t-35.5 -14z" />
    <glyph glyph-name="Zcaron" unicode="&#x17d;" horiz-adv-x="576" 
d="M62 0v57l355 453h-280v-133h-60v186h439v-51l-358 -459h305v142h60v-195h-461zM262 618l-81 151h53l64 -109l62 109h52l-79 -151h-71z" />
    <glyph glyph-name="zcaron" unicode="&#x17e;" horiz-adv-x="438" 
d="M51 0v52l253 290h-192v-81h-56v132h334v-55l-253 -288h201v90h58v-140h-345zM193 448l-81 151h53l64 -109l62 109h52l-79 -151h-71z" />
    <glyph glyph-name="uni018F" unicode="&#x18f;" horiz-adv-x="677" 
d="M329 -11q-88 0 -152 35.5t-98.5 99.5t-34.5 151v27h512l-2 -57h-424q0 -61 26.5 -104.5t72 -66.5t102.5 -23q60 0 107 27t74.5 78t27.5 121q0 73 -27 126t-74.5 82t-111.5 29q-73 0 -132 -28t-109 -72l-32 47q31 28 71.5 53.5t91.5 42t113 16.5q63 0 117 -20.5t94.5 -59
t63 -92t22.5 -118.5q0 -68 -23 -122t-64 -92.5t-95 -59t-116 -20.5z" />
    <glyph glyph-name="florin" unicode="&#x192;" horiz-adv-x="377" 
d="M38 -167q-22 0 -43 5.5t-35 12.5l8 59q15 -10 30 -14.5t31 -4.5q29 0 43.5 16.5t21.5 57.5l80 488q10 59 41.5 90t85.5 31q24 0 43 -5t33 -13l-8 -59q-13 9 -27 14t-29 5q-31 0 -47 -17t-23 -57l-80 -488q-10 -65 -40 -93t-85 -28zM60 290l7 53h263l-7 -53h-263z" />
    <glyph glyph-name="Ohorn" unicode="&#x1a0;" horiz-adv-x="709" 
d="M354 -11q-69 0 -125.5 23t-96.5 63.5t-61.5 93t-21.5 111.5q0 60 21.5 113t61.5 93.5t96.5 64t125.5 23.5q30 0 53 -3.5t48 -3.5q28 0 48 15t23 50h81q-7 -52 -43 -82t-92 -30l4 31q57 -22 98 -63t63 -94.5t22 -113.5q0 -59 -21.5 -111.5t-61.5 -93t-96 -63.5t-126 -23z
M354 49q51 0 91.5 18t69 50t43 73.5t14.5 89.5t-14.5 90.5t-43 75t-69 51t-91.5 18.5q-52 0 -92 -18.5t-68 -51t-42.5 -75t-14.5 -91.5q0 -48 14.5 -89.5t42.5 -73.5t68 -49.5t92 -17.5z" />
    <glyph glyph-name="ohorn" unicode="&#x1a1;" horiz-adv-x="476" 
d="M237 -12q-63 0 -111 26t-74.5 73t-26.5 110t26.5 109.5t74.5 72t111 25.5q64 0 112 -25.5t75 -72t27 -108.5q0 -63 -27 -110t-75 -73.5t-112 -26.5zM237 46q42 0 73 19t48 53t17 80q0 45 -17 78t-48 51.5t-73 18.5q-41 0 -71.5 -18.5t-47.5 -52t-17 -78.5t17 -79
t47.5 -53t71.5 -19zM259 345v47h12q28 0 48 15.5t23 52.5h81q-7 -53 -43 -84t-92 -31h-29z" />
    <glyph glyph-name="Uhorn" unicode="&#x1af;" horiz-adv-x="670" 
d="M337 -10q-84 0 -135.5 28t-75.5 76.5t-24 109.5v306h-75v53h231v-53h-75v-317q0 -44 18.5 -76.5t53.5 -49.5t84 -17q53 0 90 17t56.5 49.5t19.5 77.5v316h-74v53h143v-366q0 -70 -30.5 -115.5t-83.5 -68.5t-123 -23zM503 516v47h12q28 0 48 16t23 53h81q-7 -53 -43 -84.5
t-92 -31.5h-29z" />
    <glyph glyph-name="uhorn" unicode="&#x1b0;" horiz-adv-x="510" 
d="M208 -10q-46 0 -75 18t-42.5 48t-13.5 66v218h-66v53h140v-263q0 -37 18 -59t56 -22q44 0 81 21t70 58l-23 -39v251h-71v53h144v-340h73v-53h-144l-3 65l26 5q-39 -37 -81.5 -58.5t-88.5 -21.5zM333 346v47h12q28 0 48 15.5t23 52.5h81q-7 -53 -43 -84t-92 -31h-29z" />
    <glyph glyph-name="uni01C4" unicode="&#x1c4;" horiz-adv-x="1260" 
d="M40 0v53h78v457h-78v53h306q74 0 128 -23.5t90 -63t53.5 -89t17.5 -100.5q0 -62 -18 -114.5t-54 -91t-90 -60t-126 -21.5h-307zM200 53h139q56 0 96.5 18t66 49.5t37.5 74t12 90.5q0 43 -12.5 83t-38 72t-65 51t-93.5 19h-142v-457zM746 0v57l355 453h-280v-133h-60v186
h439v-51l-358 -459h305v142h60v-195h-461zM946 618l-81 151h53l64 -109l62 109h52l-79 -151h-71z" />
    <glyph glyph-name="uni01C5" unicode="&#x1c5;" horiz-adv-x="1122" 
d="M40 0v53h78v457h-78v53h306q74 0 128 -23.5t90 -63t53.5 -89t17.5 -100.5q0 -62 -18 -114.5t-54 -91t-90 -60t-126 -21.5h-307zM200 53h139q56 0 96.5 18t66 49.5t37.5 74t12 90.5q0 43 -12.5 83t-38 72t-65 51t-93.5 19h-142v-457zM735 0v52l253 290h-192v-81h-56v132
h334v-55l-253 -288h201v90h58v-140h-345zM877 448l-81 151h53l64 -109l62 109h52l-79 -151h-71z" />
    <glyph glyph-name="uni01C6" unicode="&#x1c6;" horiz-adv-x="951" 
d="M229 -11q-54 0 -99.5 24.5t-73.5 71.5t-28 112q0 67 26.5 112.5t70.5 69.5t96 24q42 0 83.5 -15.5t73.5 -43.5l-24 -9v186h-70v52h144v-520h62v-53h-136v52l23 -4q-29 -28 -65.5 -43.5t-82.5 -15.5zM245 45q39 0 72.5 15t61.5 40l-25 -34v260l25 -36q-31 27 -69.5 42
t-73.5 15q-38 0 -67.5 -18t-46.5 -52.5t-17 -85.5q0 -47 19 -79.5t50.5 -49.5t70.5 -17zM564 0v52l253 290h-192v-81h-56v132h334v-55l-253 -288h201v90h58v-140h-345zM706 448l-81 151h53l64 -109l62 109h52l-79 -151h-71z" />
    <glyph glyph-name="uni01C7" unicode="&#x1c7;" horiz-adv-x="851" 
d="M39 0v53h78v457h-78v53h238v-53h-78v-457h234v173h66v-226h-460zM558 -106v64h60q37 0 47 22.5t10 59.5v470h-77v53h231v-53h-73v-469q0 -49 -12 -81.5t-39.5 -49t-73.5 -16.5h-73z" />
    <glyph glyph-name="uni01C8" unicode="&#x1c8;" horiz-adv-x="774" 
d="M39 0v53h78v457h-78v53h238v-53h-78v-457h234v173h66v-226h-460zM530 -152v58h42q41 0 53 19.5t12 60.5v354h-80v53h155v-389q0 -44 -8.5 -79.5t-37.5 -56t-93 -20.5h-43zM659 479q-22 0 -38 15t-16 37q0 21 16 35.5t38 14.5q23 0 38.5 -14.5t15.5 -35.5q0 -22 -15.5 -37
t-38.5 -15z" />
    <glyph glyph-name="uni01C9" unicode="&#x1c9;" horiz-adv-x="509" 
d="M27 0v53h73v468h-71v52h145v-520h64v-53h-211zM265 -152v58h42q41 0 53 19.5t12 60.5v354h-80v53h155v-389q0 -44 -8.5 -79.5t-37.5 -56t-93 -20.5h-43zM394 479q-22 0 -38 15t-16 37q0 21 16 35.5t38 14.5q23 0 38.5 -14.5t15.5 -35.5q0 -22 -15.5 -37t-38.5 -15z" />
    <glyph glyph-name="uni01CA" unicode="&#x1ca;" horiz-adv-x="1030" 
d="M41 0v53h80v457h-80v53h174l322 -455v402h-80v53h221v-53h-78v-510h-81l-336 479v-426h80v-53h-222zM737 -106v64h60q37 0 47 22.5t10 59.5v470h-77v53h231v-53h-73v-469q0 -49 -12 -81.5t-39.5 -49t-73.5 -16.5h-73z" />
    <glyph glyph-name="uni01CB" unicode="&#x1cb;" horiz-adv-x="953" 
d="M41 0v53h80v457h-80v53h174l322 -455v402h-80v53h221v-53h-78v-510h-81l-336 479v-426h80v-53h-222zM709 -152v58h42q41 0 53 19.5t12 60.5v354h-80v53h155v-389q0 -44 -8.5 -79.5t-37.5 -56t-93 -20.5h-43zM838 479q-22 0 -38 15t-16 37q0 21 16 35.5t38 14.5
q23 0 38.5 -14.5t15.5 -35.5q0 -22 -15.5 -37t-38.5 -15z" />
    <glyph glyph-name="uni01CC" unicode="&#x1cc;" horiz-adv-x="766" 
d="M22 0v53h76v287h-76v53h149v-54l-28 -3q42 29 84 48t86 19q54 0 91.5 -33.5t37.5 -97.5v-219h73v-53h-211v53h65v205q0 41 -20 64t-55 23q-36 0 -73 -16t-79 -44l29 32v-264h71v-53h-220zM522 -152v58h42q41 0 53 19.5t12 60.5v354h-80v53h155v-389q0 -44 -8.5 -79.5
t-37.5 -56t-93 -20.5h-43zM651 479q-22 0 -38 15t-16 37q0 21 16 35.5t38 14.5q23 0 38.5 -14.5t15.5 -35.5q0 -22 -15.5 -37t-38.5 -15z" />
    <glyph glyph-name="uni01CD" unicode="&#x1cd;" horiz-adv-x="675" 
d="M28 0v53h72l163 457h-63v53h275v-53h-65l168 -457h68v-53h-229v53h75l-57 164h-204l-56 -164h75v-53h-222zM247 270h172l-82 239h-6zM303 618l-81 151h53l64 -109l62 109h52l-79 -151h-71z" />
    <glyph glyph-name="uni01CE" unicode="&#x1ce;" horiz-adv-x="456" 
d="M174 -11q-61 0 -98 34t-37 83q0 45 21.5 72t57.5 39t79 12q34 0 69.5 -5.5t69.5 -14.5l-30 -5v53q0 47 -25 69t-68 22q-28 0 -65.5 -9.5t-69.5 -26.5l-22 48q35 22 79 32.5t79 10.5q52 0 89 -17t56.5 -48.5t19.5 -73.5v-211h62v-53h-127l-6 56h28q-39 -34 -76 -50.5
t-86 -16.5zM185 40q37 0 74 16t77 49l-30 -36v116l23 -18q-26 8 -59 13t-68 5t-64 -15.5t-29 -59.5q0 -30 20 -50t56 -20zM182 448l-81 151h53l64 -109l62 109h52l-79 -151h-71z" />
    <glyph glyph-name="uni01CF" unicode="&#x1cf;" horiz-adv-x="339" 
d="M50 0v53h78v457h-78v53h239v-53h-79v-457h79v-53h-239zM135 618l-81 151h53l64 -109l62 109h52l-79 -151h-71z" />
    <glyph glyph-name="uni01D0" unicode="&#x1d0;" horiz-adv-x="267" 
d="M22 0v53h76v287h-75v53h148v-340h71v-53h-220zM90 448l-81 151h53l64 -109l62 109h52l-79 -151h-71z" />
    <glyph glyph-name="uni01D1" unicode="&#x1d1;" horiz-adv-x="709" 
d="M354 -11q-69 0 -125.5 23t-96.5 63.5t-61.5 93t-21.5 111.5t21.5 112t61.5 93.5t96.5 64t125.5 23.5t125.5 -23.5t96.5 -64t61.5 -93.5t21.5 -112t-21.5 -111.5t-61.5 -93t-96 -63.5t-126 -23zM354 49q51 0 91.5 18t69 50t43 73.5t14.5 89.5t-14.5 90.5t-43 74.5
t-69 50.5t-91.5 18.5q-52 0 -92 -18.5t-68 -51t-42.5 -75t-14.5 -90.5t14.5 -89.5t42.5 -73.5t68 -49.5t92 -17.5zM318 618l-81 151h53l64 -109l62 109h52l-79 -151h-71z" />
    <glyph glyph-name="uni01D2" unicode="&#x1d2;" horiz-adv-x="476" 
d="M237 -12q-63 0 -111 26t-74.5 73t-26.5 110t26.5 109.5t74.5 72t111 25.5q64 0 112 -25.5t75 -72t27 -108.5q0 -63 -27 -110t-75 -73.5t-112 -26.5zM237 46q42 0 73 19t48 53t17 80q0 45 -17 78t-48 51.5t-73 18.5q-41 0 -71.5 -18.5t-47.5 -52t-17 -78.5t17 -79
t47.5 -53t71.5 -19zM202 448l-81 151h53l64 -109l62 109h52l-79 -151h-71z" />
    <glyph glyph-name="uni01D3" unicode="&#x1d3;" horiz-adv-x="670" 
d="M337 -10q-84 0 -135.5 28t-75.5 76.5t-24 109.5v306h-75v53h231v-53h-75v-317q0 -44 18.5 -76.5t53.5 -49.5t84 -17q53 0 90 17t56.5 49.5t19.5 77.5v316h-74v53h219v-53h-76v-313q0 -70 -30.5 -115.5t-83.5 -68.5t-123 -23zM309 618l-81 151h53l64 -109l62 109h52
l-79 -151h-71z" />
    <glyph glyph-name="uni01D4" unicode="&#x1d4;" horiz-adv-x="510" 
d="M208 -10q-46 0 -75 18t-42.5 48t-13.5 66v218h-66v53h140v-263q0 -37 18 -59t56 -22q44 0 81 21t70 58l-23 -39v251h-71v53h144v-340h73v-53h-144l-3 65l26 5q-39 -37 -81.5 -58.5t-88.5 -21.5zM204 448l-81 151h53l64 -109l62 109h52l-79 -151h-71z" />
    <glyph glyph-name="uni01E2" unicode="&#x1e2;" horiz-adv-x="970" 
d="M22 0v53h76l280 457h-61v53h558l9 -178h-62l-9 125h-272l12 -195h178l-4 66h40l12 -190h-41l-6 68h-178l12 -206h282l-8 126h62l10 -179h-503v53h76l-9 152h-205l-87 -152h68v-53h-230zM297 255h178l-15 255h-9zM475 643v45h210v-45h-210z" />
    <glyph glyph-name="uni01E3" unicode="&#x1e3;" horiz-adv-x="742" 
d="M179 -11q-64 0 -102 34t-38 83q0 45 22.5 71.5t60.5 38t84 11.5h100v30q0 47 -25 69t-68 22q-28 0 -65.5 -9.5t-69.5 -26.5l-22 48q35 22 79 32.5t79 10.5q34 0 62 -7.5t48.5 -22t33.5 -34.5q29 31 69 48t87 17q60 0 103.5 -25t66.5 -71t23 -108v-19h-324q4 -42 23 -72.5
t49.5 -47t69.5 -16.5q45 0 83 18t66 45l26 -45q-27 -31 -70 -53t-102 -22q-54 0 -99 19.5t-75 54.5q-41 -38 -82.5 -55.5t-92.5 -17.5zM190 40q37 0 69.5 14.5t69.5 44.5q-10 18 -15.5 38.5t-7.5 43.5h-95q-26 0 -49.5 -6.5t-38 -21.5t-14.5 -43q0 -30 21.5 -50t59.5 -20z
M383 227h251q0 39 -15.5 66.5t-42.5 42t-62 14.5q-34 0 -62 -14.5t-46 -42t-23 -66.5zM253 473v45h210v-45h-210z" />
    <glyph glyph-name="Gcaron" unicode="&#x1e6;" horiz-adv-x="684" 
d="M356 -10q-97 0 -166 37.5t-105.5 104t-36.5 151.5q0 87 39 152t108 101.5t159 36.5q83 0 138.5 -35t84.5 -91h-30v116h65v-174h-58q-27 61 -78 93t-119 32t-117.5 -27.5t-76.5 -78t-27 -120.5q0 -73 27 -126.5t77.5 -82.5t118.5 -29q42 1 78 12t63.5 33t43 57t15.5 83
l45 -7h-164v56h199v-30q0 -60 -18.5 -109t-54.5 -83.5t-89 -53t-121 -18.5zM316 618l-81 151h53l64 -109l62 109h52l-79 -151h-71z" />
    <glyph glyph-name="gcaron" unicode="&#x1e7;" horiz-adv-x="513" 
d="M235 -188q-35 0 -73 6.5t-75 17.5l15 58q35 -10 68.5 -16.5t62.5 -6.5q61 0 95.5 28t34.5 87v70l23 4q-30 -31 -71.5 -47t-82.5 -16q-55 0 -101 24t-73 69.5t-27 109.5q0 66 26.5 111t72 68t100.5 23q40 0 84 -17t68 -46h-20v54h141v-53h-66v-349q0 -64 -26.5 -103.5
t-72 -57.5t-103.5 -18zM239 348q-38 0 -67.5 -17.5t-46.5 -51.5t-17 -84q0 -46 18.5 -78t50 -48.5t70.5 -16.5q35 0 73.5 15.5t66.5 43.5l-24 -37l-1 247l25 -32q-31 26 -71 42.5t-77 16.5zM211 448l-81 151h53l64 -109l62 109h52l-79 -151h-71z" />
    <glyph glyph-name="uni01E8" unicode="&#x1e8;" horiz-adv-x="633" 
d="M39 0v53h78v457h-78v53h238v-53h-78v-215l232 215h-64v53h233v-53h-74l-244 -226l248 -231h75v-53h-241v53h66l-231 214v-214h78v-53h-238zM282 618l-81 151h53l64 -109l62 109h52l-79 -151h-71z" />
    <glyph glyph-name="uni01E9" unicode="&#x1e9;" horiz-adv-x="498" 
d="M26 0v53h74v468h-72v52h146v-363l170 130h-73v53h209v-53h-60l-170 -135l154 -152h78v-53h-115l-193 193v-140h64v-53h-212zM102 628l-81 151h53l64 -109l62 109h52l-79 -151h-71z" />
    <glyph glyph-name="uni01EA" unicode="&#x1ea;" horiz-adv-x="709" 
d="M354 -11q-69 0 -125.5 23t-96.5 63.5t-61.5 93t-21.5 111.5t21.5 112t61.5 93.5t96.5 64t125.5 23.5t125.5 -23.5t96.5 -64t61.5 -93.5t21.5 -112t-21.5 -111.5t-61.5 -93t-96 -63.5t-126 -23zM354 49q51 0 91.5 18t69 50t43 73.5t14.5 89.5t-14.5 90.5t-43 74.5
t-69 50.5t-91.5 18.5q-52 0 -92 -18.5t-68 -51t-42.5 -75t-14.5 -90.5t14.5 -89.5t42.5 -73.5t68 -49.5t92 -17.5zM372 -169q-34 0 -57 20.5t-23 53.5q0 25 13.5 47.5t39.5 47.5h43q-21 -22 -33 -42t-12 -38q0 -22 13.5 -32.5t33.5 -10.5q22 0 44 13v-40q-17 -10 -31 -14.5
t-31 -4.5z" />
    <glyph glyph-name="uni01EB" unicode="&#x1eb;" horiz-adv-x="476" 
d="M237 -12q-63 0 -111 26t-74.5 73t-26.5 110t26.5 109.5t74.5 72t111 25.5q64 0 112 -25.5t75 -72t27 -108.5q0 -63 -27 -110t-75 -73.5t-112 -26.5zM237 46q42 0 73 19t48 53t17 80q0 45 -17 78t-48 51.5t-73 18.5q-41 0 -71.5 -18.5t-47.5 -52t-17 -78.5t17 -79
t47.5 -53t71.5 -19zM254 -169q-34 0 -57 20.5t-23 53.5q0 25 13.5 47.5t39.5 47.5h43q-21 -22 -33 -42t-12 -38q0 -22 13.5 -32.5t33.5 -10.5q22 0 44 13v-40q-17 -10 -31 -14.5t-31 -4.5z" />
    <glyph glyph-name="uni01F0" unicode="&#x1f0;" horiz-adv-x="247" 
d="M5 -152v58h42q42 0 53.5 20.5t11.5 63.5v350h-82v53h156v-382q0 -33 -3 -62.5t-16 -52t-41 -35.5t-78 -13h-43zM83 448l-81 151h53l64 -109l62 109h52l-79 -151h-71z" />
    <glyph glyph-name="uni01F1" unicode="&#x1f1;" horiz-adv-x="1260" 
d="M40 0v53h78v457h-78v53h306q74 0 128 -23.5t90 -63t53.5 -89t17.5 -100.5q0 -62 -18 -114.5t-54 -91t-90 -60t-126 -21.5h-307zM200 53h139q56 0 96.5 18t66 49.5t37.5 74t12 90.5q0 43 -12.5 83t-38 72t-65 51t-93.5 19h-142v-457zM746 0v57l355 453h-280v-133h-60v186
h439v-51l-358 -459h305v142h60v-195h-461z" />
    <glyph glyph-name="uni01F2" unicode="&#x1f2;" horiz-adv-x="1082" 
d="M40 0v53h78v457h-78v53h306q74 0 128 -23.5t90 -63t53.5 -89t17.5 -100.5q0 -62 -18 -114.5t-54 -91t-90 -60t-126 -21.5h-307zM200 53h139q56 0 96.5 18t66 49.5t37.5 74t12 90.5q0 43 -12.5 83t-38 72t-65 51t-93.5 19h-142v-457zM695 0v52l253 290h-192v-81h-56v132
h334v-55l-253 -288h201v90h58v-140h-345z" />
    <glyph glyph-name="uni01F3" unicode="&#x1f3;" horiz-adv-x="951" 
d="M229 -11q-54 0 -99.5 24.5t-73.5 71.5t-28 112q0 67 26.5 112.5t70.5 69.5t96 24q42 0 83.5 -15.5t73.5 -43.5l-24 -9v186h-70v52h144v-520h62v-53h-136v52l23 -4q-29 -28 -65.5 -43.5t-82.5 -15.5zM245 45q39 0 72.5 15t61.5 40l-25 -34v260l25 -36q-31 27 -69.5 42
t-73.5 15q-38 0 -67.5 -18t-46.5 -52.5t-17 -85.5q0 -47 19 -79.5t50.5 -49.5t70.5 -17zM564 0v52l253 290h-192v-81h-56v132h334v-55l-253 -288h201v90h58v-140h-345z" />
    <glyph glyph-name="uni01F4" unicode="&#x1f4;" horiz-adv-x="684" 
d="M356 -10q-97 0 -166 37.5t-105.5 104t-36.5 151.5q0 87 39 152t108 101.5t159 36.5q83 0 138.5 -35t84.5 -91h-30v116h65v-174h-58q-27 61 -78 93t-119 32t-117.5 -27.5t-76.5 -78t-27 -120.5q0 -73 27 -126.5t77.5 -82.5t118.5 -29q42 1 78 12t63.5 33t43 57t15.5 83
l45 -7h-164v56h199v-30q0 -60 -18.5 -109t-54.5 -83.5t-89 -53t-121 -18.5zM328 647l53 145h84l-90 -145h-47z" />
    <glyph glyph-name="uni01F5" unicode="&#x1f5;" horiz-adv-x="513" 
d="M235 -188q-35 0 -73 6.5t-75 17.5l15 58q35 -10 68.5 -16.5t62.5 -6.5q61 0 95.5 28t34.5 87v70l23 4q-30 -31 -71.5 -47t-82.5 -16q-55 0 -101 24t-73 69.5t-27 109.5q0 66 26.5 111t72 68t100.5 23q40 0 84 -17t68 -46h-20v54h141v-53h-66v-349q0 -64 -26.5 -103.5
t-72 -57.5t-103.5 -18zM239 348q-38 0 -67.5 -17.5t-46.5 -51.5t-17 -84q0 -46 18.5 -78t50 -48.5t70.5 -16.5q35 0 73.5 15.5t66.5 43.5l-24 -37l-1 247l25 -32q-31 26 -71 42.5t-77 16.5zM223 477l53 145h84l-90 -145h-47z" />
    <glyph glyph-name="uni01F8" unicode="&#x1f8;" horiz-adv-x="704" 
d="M41 0v53h80v457h-80v53h174l322 -455v402h-80v53h221v-53h-78v-510h-81l-336 479v-426h80v-53h-222zM327 647l-90 145h84l53 -145h-47z" />
    <glyph glyph-name="uni01F9" unicode="&#x1f9;" horiz-adv-x="517" 
d="M22 0v53h76v287h-76v53h149v-54l-28 -3q42 29 84 48t86 19q54 0 91.5 -33.5t37.5 -97.5v-219h73v-53h-211v53h65v205q0 41 -20 64t-55 23q-36 0 -73 -16t-79 -44l29 32v-264h71v-53h-220zM258 477l-90 145h84l53 -145h-47z" />
    <glyph glyph-name="Aringacute" unicode="&#x1fa;" horiz-adv-x="675" 
d="M28 0v53h72l163 457h-63v53h275v-53h-65l168 -457h68v-53h-229v53h75l-57 164h-204l-56 -164h75v-53h-222zM247 270h172l-82 239h-6zM338 598q-37 0 -58 22t-21 53t21 52t58 21q38 0 58.5 -21t20.5 -52t-21 -53t-58 -22zM338 629q21 0 32.5 13t11.5 31t-11.5 30.5
t-32.5 12.5t-33 -12.5t-12 -30.5t12 -31t33 -13zM315 782l53 145h84l-90 -145h-47z" />
    <glyph glyph-name="aringacute" unicode="&#x1fb;" horiz-adv-x="456" 
d="M174 -11q-61 0 -98 34t-37 83q0 45 21.5 72t57.5 39t79 12q34 0 69.5 -5.5t69.5 -14.5l-30 -5v53q0 47 -25 69t-68 22q-28 0 -65.5 -9.5t-69.5 -26.5l-22 48q35 22 79 32.5t79 10.5q52 0 89 -17t56.5 -48.5t19.5 -73.5v-211h62v-53h-127l-6 56h28q-39 -34 -76 -50.5
t-86 -16.5zM185 40q37 0 74 16t77 49l-30 -36v116l23 -18q-26 8 -59 13t-68 5t-64 -15.5t-29 -59.5q0 -30 20 -50t56 -20zM217 428q-37 0 -58 22t-21 53t21 52t58 21q38 0 58.5 -21t20.5 -52t-21 -53t-58 -22zM217 459q21 0 32.5 13t11.5 31t-11.5 30.5t-32.5 12.5
t-33 -12.5t-12 -30.5t12 -31t33 -13zM194 612l53 145h84l-90 -145h-47z" />
    <glyph glyph-name="AEacute" unicode="&#x1fc;" horiz-adv-x="970" 
d="M22 0v53h76l280 457h-61v53h558l9 -178h-62l-9 125h-272l12 -195h178l-4 66h40l12 -190h-41l-6 68h-178l12 -206h282l-8 126h62l10 -179h-503v53h76l-9 152h-205l-87 -152h68v-53h-230zM297 255h178l-15 255h-9zM557 647l53 145h84l-90 -145h-47z" />
    <glyph glyph-name="aeacute" unicode="&#x1fd;" horiz-adv-x="742" 
d="M179 -11q-64 0 -102 34t-38 83q0 45 22.5 71.5t60.5 38t84 11.5h100v30q0 47 -25 69t-68 22q-28 0 -65.5 -9.5t-69.5 -26.5l-22 48q35 22 79 32.5t79 10.5q34 0 62 -7.5t48.5 -22t33.5 -34.5q29 31 69 48t87 17q60 0 103.5 -25t66.5 -71t23 -108v-19h-324q4 -42 23 -72.5
t49.5 -47t69.5 -16.5q45 0 83 18t66 45l26 -45q-27 -31 -70 -53t-102 -22q-54 0 -99 19.5t-75 54.5q-41 -38 -82.5 -55.5t-92.5 -17.5zM190 40q37 0 69.5 14.5t69.5 44.5q-10 18 -15.5 38.5t-7.5 43.5h-95q-26 0 -49.5 -6.5t-38 -21.5t-14.5 -43q0 -30 21.5 -50t59.5 -20z
M383 227h251q0 39 -15.5 66.5t-42.5 42t-62 14.5q-34 0 -62 -14.5t-46 -42t-23 -66.5zM335 477l53 145h84l-90 -145h-47z" />
    <glyph glyph-name="Oslashacute" unicode="&#x1fe;" horiz-adv-x="660" 
d="M117 -37l-38 27l475 605l38 -26zM330 -12q-69 0 -125.5 23t-96.5 63.5t-61.5 93t-21.5 111.5t21.5 112t61.5 93.5t96.5 64t125.5 23.5t125.5 -23.5t96.5 -64t61.5 -93.5t21.5 -112t-21.5 -111.5t-61.5 -93t-96 -63.5t-126 -23zM330 48q51 0 91.5 18t69 50t43 73.5
t14.5 89.5t-14.5 90.5t-43 74.5t-69 50.5t-91.5 18.5q-52 0 -92 -18.5t-68 -51t-42.5 -75t-14.5 -90.5t14.5 -89.5t42.5 -73.5t68 -49.5t92 -17.5zM307 647l53 145h84l-90 -145h-47z" />
    <glyph glyph-name="oslashacute" unicode="&#x1ff;" horiz-adv-x="482" 
d="M122 -63l-35 18l272 498l35 -17zM237 -12q-63 0 -111 26t-74.5 73t-26.5 110t26.5 109.5t74.5 72t111 25.5q64 0 112 -25.5t75 -72t27 -108.5q0 -63 -27 -110t-75 -73.5t-112 -26.5zM237 46q42 0 73 19t48 53t17 80q0 45 -17 78t-48 51.5t-73 18.5q-41 0 -71.5 -18.5
t-47.5 -52t-17 -78.5t17 -79t47.5 -53t71.5 -19zM218 477l53 145h84l-90 -145h-47z" />
    <glyph glyph-name="uni0200" unicode="&#x200;" horiz-adv-x="675" 
d="M28 0v53h72l163 457h-63v53h275v-53h-65l168 -457h68v-53h-229v53h75l-57 164h-204l-56 -164h75v-53h-222zM247 270h172l-82 239h-6zM235 647l-94 152h84l57 -152h-47zM370 647l-93 152h84l56 -152h-47z" />
    <glyph glyph-name="uni0201" unicode="&#x201;" horiz-adv-x="456" 
d="M174 -11q-61 0 -98 34t-37 83q0 45 21.5 72t57.5 39t79 12q34 0 69.5 -5.5t69.5 -14.5l-30 -5v53q0 47 -25 69t-68 22q-28 0 -65.5 -9.5t-69.5 -26.5l-22 48q35 22 79 32.5t79 10.5q52 0 89 -17t56.5 -48.5t19.5 -73.5v-211h62v-53h-127l-6 56h28q-39 -34 -76 -50.5
t-86 -16.5zM185 40q37 0 74 16t77 49l-30 -36v116l23 -18q-26 8 -59 13t-68 5t-64 -15.5t-29 -59.5q0 -30 20 -50t56 -20zM114 477l-94 152h84l57 -152h-47zM249 477l-93 152h84l56 -152h-47z" />
    <glyph glyph-name="uni0202" unicode="&#x202;" horiz-adv-x="675" 
d="M28 0v53h72l163 457h-63v53h275v-53h-65l168 -457h68v-53h-229v53h75l-57 164h-204l-56 -164h75v-53h-222zM247 270h172l-82 239h-6zM221 620q5 49 36.5 78t80.5 29q48 0 79.5 -29t36.5 -78h-59q-9 51 -57 51q-49 0 -58 -51h-59z" />
    <glyph glyph-name="uni0203" unicode="&#x203;" horiz-adv-x="456" 
d="M174 -11q-61 0 -98 34t-37 83q0 45 21.5 72t57.5 39t79 12q34 0 69.5 -5.5t69.5 -14.5l-30 -5v53q0 47 -25 69t-68 22q-28 0 -65.5 -9.5t-69.5 -26.5l-22 48q35 22 79 32.5t79 10.5q52 0 89 -17t56.5 -48.5t19.5 -73.5v-211h62v-53h-127l-6 56h28q-39 -34 -76 -50.5
t-86 -16.5zM185 40q37 0 74 16t77 49l-30 -36v116l23 -18q-26 8 -59 13t-68 5t-64 -15.5t-29 -59.5q0 -30 20 -50t56 -20zM100 450q5 49 36.5 78t80.5 29q48 0 79.5 -29t36.5 -78h-59q-9 51 -57 51q-49 0 -58 -51h-59z" />
    <glyph glyph-name="uni0204" unicode="&#x204;" horiz-adv-x="582" 
d="M39 0v53h78v457h-78v53h490v-167h-63v114h-267v-191h175v66h41v-188h-41v67h-175v-211h272v117h63v-170h-495zM207 647l-94 152h84l57 -152h-47zM342 647l-93 152h84l56 -152h-47z" />
    <glyph glyph-name="uni0205" unicode="&#x205;" horiz-adv-x="461" 
d="M247 -12q-62 0 -112.5 26t-80 73t-29.5 109q0 64 28 110.5t75 72t105 25.5q60 0 103.5 -25t66.5 -71t23 -108v-19h-336l1 46h262q0 39 -15.5 66.5t-42.5 42t-62 14.5q-37 0 -67 -17.5t-47.5 -50t-17.5 -78.5q0 -49 18 -84.5t50.5 -55t74.5 -19.5q45 0 83 18t66 45l26 -45
q-27 -31 -70 -53t-102 -22zM133 477l-94 152h84l57 -152h-47zM268 477l-93 152h84l56 -152h-47z" />
    <glyph glyph-name="uni0206" unicode="&#x206;" horiz-adv-x="582" 
d="M39 0v53h78v457h-78v53h490v-167h-63v114h-267v-191h175v66h41v-188h-41v67h-175v-211h272v117h63v-170h-495zM193 620q5 49 36.5 78t80.5 29q48 0 79.5 -29t36.5 -78h-59q-9 51 -57 51q-49 0 -58 -51h-59z" />
    <glyph glyph-name="uni0207" unicode="&#x207;" horiz-adv-x="461" 
d="M247 -12q-62 0 -112.5 26t-80 73t-29.5 109q0 64 28 110.5t75 72t105 25.5q60 0 103.5 -25t66.5 -71t23 -108v-19h-336l1 46h262q0 39 -15.5 66.5t-42.5 42t-62 14.5q-37 0 -67 -17.5t-47.5 -50t-17.5 -78.5q0 -49 18 -84.5t50.5 -55t74.5 -19.5q45 0 83 18t66 45l26 -45
q-27 -31 -70 -53t-102 -22zM119 450q5 49 36.5 78t80.5 29q48 0 79.5 -29t36.5 -78h-59q-9 51 -57 51q-49 0 -58 -51h-59z" />
    <glyph glyph-name="uni0208" unicode="&#x208;" horiz-adv-x="339" 
d="M50 0v53h78v457h-78v53h239v-53h-79v-457h79v-53h-239zM67 647l-94 152h84l57 -152h-47zM202 647l-93 152h84l56 -152h-47z" />
    <glyph glyph-name="uni0209" unicode="&#x209;" horiz-adv-x="267" 
d="M22 0v53h76v287h-75v53h148v-340h71v-53h-220zM22 477l-94 152h84l57 -152h-47zM157 477l-93 152h84l56 -152h-47z" />
    <glyph glyph-name="uni020A" unicode="&#x20a;" horiz-adv-x="339" 
d="M50 0v53h78v457h-78v53h239v-53h-79v-457h79v-53h-239zM53 620q5 49 36.5 78t80.5 29q48 0 79.5 -29t36.5 -78h-59q-9 51 -57 51q-49 0 -58 -51h-59z" />
    <glyph glyph-name="uni020B" unicode="&#x20b;" horiz-adv-x="267" 
d="M22 0v53h76v287h-75v53h148v-340h71v-53h-220zM8 450q5 49 36.5 78t80.5 29q48 0 79.5 -29t36.5 -78h-59q-9 51 -57 51q-49 0 -58 -51h-59z" />
    <glyph glyph-name="uni020C" unicode="&#x20c;" horiz-adv-x="709" 
d="M354 -11q-69 0 -125.5 23t-96.5 63.5t-61.5 93t-21.5 111.5t21.5 112t61.5 93.5t96.5 64t125.5 23.5t125.5 -23.5t96.5 -64t61.5 -93.5t21.5 -112t-21.5 -111.5t-61.5 -93t-96 -63.5t-126 -23zM354 49q51 0 91.5 18t69 50t43 73.5t14.5 89.5t-14.5 90.5t-43 74.5
t-69 50.5t-91.5 18.5q-52 0 -92 -18.5t-68 -51t-42.5 -75t-14.5 -90.5t14.5 -89.5t42.5 -73.5t68 -49.5t92 -17.5zM250 647l-94 152h84l57 -152h-47zM385 647l-93 152h84l56 -152h-47z" />
    <glyph glyph-name="uni020D" unicode="&#x20d;" horiz-adv-x="476" 
d="M237 -12q-63 0 -111 26t-74.5 73t-26.5 110t26.5 109.5t74.5 72t111 25.5q64 0 112 -25.5t75 -72t27 -108.5q0 -63 -27 -110t-75 -73.5t-112 -26.5zM237 46q42 0 73 19t48 53t17 80q0 45 -17 78t-48 51.5t-73 18.5q-41 0 -71.5 -18.5t-47.5 -52t-17 -78.5t17 -79
t47.5 -53t71.5 -19zM134 477l-94 152h84l57 -152h-47zM269 477l-93 152h84l56 -152h-47z" />
    <glyph glyph-name="uni020E" unicode="&#x20e;" horiz-adv-x="709" 
d="M354 -11q-69 0 -125.5 23t-96.5 63.5t-61.5 93t-21.5 111.5t21.5 112t61.5 93.5t96.5 64t125.5 23.5t125.5 -23.5t96.5 -64t61.5 -93.5t21.5 -112t-21.5 -111.5t-61.5 -93t-96 -63.5t-126 -23zM354 49q51 0 91.5 18t69 50t43 73.5t14.5 89.5t-14.5 90.5t-43 74.5
t-69 50.5t-91.5 18.5q-52 0 -92 -18.5t-68 -51t-42.5 -75t-14.5 -90.5t14.5 -89.5t42.5 -73.5t68 -49.5t92 -17.5zM236 620q5 49 36.5 78t80.5 29q48 0 79.5 -29t36.5 -78h-59q-9 51 -57 51q-49 0 -58 -51h-59z" />
    <glyph glyph-name="uni020F" unicode="&#x20f;" horiz-adv-x="476" 
d="M237 -12q-63 0 -111 26t-74.5 73t-26.5 110t26.5 109.5t74.5 72t111 25.5q64 0 112 -25.5t75 -72t27 -108.5q0 -63 -27 -110t-75 -73.5t-112 -26.5zM237 46q42 0 73 19t48 53t17 80q0 45 -17 78t-48 51.5t-73 18.5q-41 0 -71.5 -18.5t-47.5 -52t-17 -78.5t17 -79
t47.5 -53t71.5 -19zM120 450q5 49 36.5 78t80.5 29q48 0 79.5 -29t36.5 -78h-59q-9 51 -57 51q-49 0 -58 -51h-59z" />
    <glyph glyph-name="uni0210" unicode="&#x210;" horiz-adv-x="619" 
d="M39 0v53h78v457h-78v53h296q59 0 102 -16.5t66 -49t23 -81.5q0 -39 -14.5 -70t-46.5 -51.5t-84 -28.5l129 -213h83v-53h-139l-151 258h-69v55h88q49 0 75.5 15.5t37 39t10.5 47.5q0 26 -11.5 47.5t-35.5 34.5t-62 13h-137v-457h78v-53h-238zM189 647l-94 152h84l57 -152
h-47zM324 647l-93 152h84l56 -152h-47z" />
    <glyph glyph-name="uni0211" unicode="&#x211;" horiz-adv-x="386" 
d="M35 0v53h76v287h-76v53h149v-117l-14 2q11 45 28.5 71t40 37.5t46.5 11.5q20 0 40 -5t40 -15l-18 -67q-17 11 -34 16.5t-35 5.5q-38 0 -65.5 -31.5t-27.5 -90.5l-1 -158h70v-53h-219zM124 477l-94 152h84l57 -152h-47zM259 477l-93 152h84l56 -152h-47z" />
    <glyph glyph-name="uni0212" unicode="&#x212;" horiz-adv-x="619" 
d="M39 0v53h78v457h-78v53h296q59 0 102 -16.5t66 -49t23 -81.5q0 -39 -14.5 -70t-46.5 -51.5t-84 -28.5l129 -213h83v-53h-139l-151 258h-69v55h88q49 0 75.5 15.5t37 39t10.5 47.5q0 26 -11.5 47.5t-35.5 34.5t-62 13h-137v-457h78v-53h-238zM175 620q5 49 36.5 78
t80.5 29q48 0 79.5 -29t36.5 -78h-59q-9 51 -57 51q-49 0 -58 -51h-59z" />
    <glyph glyph-name="uni0213" unicode="&#x213;" horiz-adv-x="386" 
d="M35 0v53h76v287h-76v53h149v-117l-14 2q11 45 28.5 71t40 37.5t46.5 11.5q20 0 40 -5t40 -15l-18 -67q-17 11 -34 16.5t-35 5.5q-38 0 -65.5 -31.5t-27.5 -90.5l-1 -158h70v-53h-219zM110 450q5 49 36.5 78t80.5 29q48 0 79.5 -29t36.5 -78h-59q-9 51 -57 51
q-49 0 -58 -51h-59z" />
    <glyph glyph-name="uni0214" unicode="&#x214;" horiz-adv-x="670" 
d="M337 -10q-84 0 -135.5 28t-75.5 76.5t-24 109.5v306h-75v53h231v-53h-75v-317q0 -44 18.5 -76.5t53.5 -49.5t84 -17q53 0 90 17t56.5 49.5t19.5 77.5v316h-74v53h219v-53h-76v-313q0 -70 -30.5 -115.5t-83.5 -68.5t-123 -23zM241 647l-94 152h84l57 -152h-47zM376 647
l-93 152h84l56 -152h-47z" />
    <glyph glyph-name="uni0215" unicode="&#x215;" horiz-adv-x="510" 
d="M208 -10q-46 0 -75 18t-42.5 48t-13.5 66v218h-66v53h140v-263q0 -37 18 -59t56 -22q44 0 81 21t70 58l-23 -39v251h-71v53h144v-340h73v-53h-144l-3 65l26 5q-39 -37 -81.5 -58.5t-88.5 -21.5zM136 477l-94 152h84l57 -152h-47zM271 477l-93 152h84l56 -152h-47z" />
    <glyph glyph-name="uni0216" unicode="&#x216;" horiz-adv-x="670" 
d="M337 -10q-84 0 -135.5 28t-75.5 76.5t-24 109.5v306h-75v53h231v-53h-75v-317q0 -44 18.5 -76.5t53.5 -49.5t84 -17q53 0 90 17t56.5 49.5t19.5 77.5v316h-74v53h219v-53h-76v-313q0 -70 -30.5 -115.5t-83.5 -68.5t-123 -23zM227 620q5 49 36.5 78t80.5 29q48 0 79.5 -29
t36.5 -78h-59q-9 51 -57 51q-49 0 -58 -51h-59z" />
    <glyph glyph-name="uni0217" unicode="&#x217;" horiz-adv-x="510" 
d="M208 -10q-46 0 -75 18t-42.5 48t-13.5 66v218h-66v53h140v-263q0 -37 18 -59t56 -22q44 0 81 21t70 58l-23 -39v251h-71v53h144v-340h73v-53h-144l-3 65l26 5q-39 -37 -81.5 -58.5t-88.5 -21.5zM122 450q5 49 36.5 78t80.5 29q48 0 79.5 -29t36.5 -78h-59q-9 51 -57 51
q-49 0 -58 -51h-59z" />
    <glyph glyph-name="uni0218" unicode="&#x218;" horiz-adv-x="522" 
d="M300 -10q-40 0 -74.5 12.5t-60.5 35t-42 52.5h13v-90h-65v190h60q4 -41 25 -73t57 -50.5t84 -18.5q52 0 81 24.5t29 70.5q0 37 -13 57.5t-43 32t-80 19.5l-24 4q-81 14 -130 53.5t-49 110.5q0 50 22 84t62 52t93 18q59 0 104 -26t61 -71h-21v86h64v-159h-59q-4 24 -17 50
t-43 44t-85 18q-52 0 -80 -24.5t-28 -63.5q0 -43 31 -66t90 -34l23 -4q66 -11 109 -30t64.5 -52t21.5 -87q0 -44 -21 -81.5t-61 -60.5t-98 -23zM247 -236v32q29 5 42.5 21.5t13.5 45.5h-54v87h95v-89q0 -45 -23.5 -71t-73.5 -26z" />
    <glyph glyph-name="uni0219" unicode="&#x219;" horiz-adv-x="432" 
d="M244 -10q-31 0 -59.5 8t-49.5 22t-32 33l15 -9v-44h-58v136h52l6 -65l-14 47q11 -37 49.5 -57t80.5 -20q38 0 63.5 15t25.5 42q0 32 -21.5 44.5t-68.5 22.5l-55 12q-55 14 -87 37.5t-32 78.5q0 53 41.5 81.5t103.5 28.5q24 0 50.5 -6.5t48.5 -19.5t31 -32l-15 5v45h59
v-135h-52l-13 95l17 -66q-4 18 -22.5 31.5t-43 21.5t-48.5 8q-32 0 -57.5 -13t-25.5 -42q0 -22 17.5 -34t57.5 -22l51 -11q38 -9 68.5 -21.5t48.5 -36t18 -66.5q0 -39 -21.5 -64.5t-56 -37.5t-72.5 -12zM183 -236v32q29 5 42.5 21.5t13.5 45.5h-54v87h95v-89
q0 -45 -23.5 -71t-73.5 -26z" />
    <glyph glyph-name="uni021A" unicode="&#x21a;" horiz-adv-x="559" 
d="M162 0v53h78v457h-154v-143h-61v196h508v-196h-61v143h-151v-457h78v-53h-237zM233 -236v32q29 5 42.5 21.5t13.5 45.5h-54v87h95v-89q0 -45 -23.5 -71t-73.5 -26z" />
    <glyph glyph-name="uni021B" unicode="&#x21b;" horiz-adv-x="301" 
d="M199 0q-56 0 -85 28.5t-29 87.5v224h-65v53h65v134l74 29v-163h104v-53h-104v-220q0 -37 12 -52t41 -15h60v-53h-73zM143 -235v32q29 5 42.5 21.5t13.5 45.5h-54v87h95v-89q0 -45 -23.5 -71t-73.5 -26z" />
    <glyph glyph-name="uni021E" unicode="&#x21e;" horiz-adv-x="697" 
d="M39 0v53h78v457h-78v53h238v-53h-78v-192h300v192h-79v53h238v-53h-78v-457h78v-53h-238v53h79v208h-300v-208h78v-53h-238zM317 618l-81 151h53l64 -109l62 109h52l-79 -151h-71z" />
    <glyph glyph-name="uni021F" unicode="&#x21f;" horiz-adv-x="521" 
d="M12 0v53h73v468h-72v52h146v-238l-27 -5q43 32 86 52.5t89 20.5q54 0 92 -33.5t38 -97.5v-219h72v-53h-211v53h65v205q0 41 -19.5 64t-54.5 23q-38 0 -79 -18.5t-76 -45.5l25 36v-264h64v-53h-211zM87 629l-81 151h53l64 -109l62 109h52l-79 -151h-71z" />
    <glyph glyph-name="uni0226" unicode="&#x226;" horiz-adv-x="675" 
d="M28 0v53h72l163 457h-63v53h275v-53h-65l168 -457h68v-53h-229v53h75l-57 164h-204l-56 -164h75v-53h-222zM247 270h172l-82 239h-6zM338 630q-20 0 -34 13.5t-14 31.5q0 19 13.5 32t34.5 13q20 0 33.5 -12t13.5 -33q1 -17 -11.5 -31t-35.5 -14z" />
    <glyph glyph-name="uni0227" unicode="&#x227;" horiz-adv-x="456" 
d="M174 -11q-61 0 -98 34t-37 83q0 45 21.5 72t57.5 39t79 12q34 0 69.5 -5.5t69.5 -14.5l-30 -5v53q0 47 -25 69t-68 22q-28 0 -65.5 -9.5t-69.5 -26.5l-22 48q35 22 79 32.5t79 10.5q52 0 89 -17t56.5 -48.5t19.5 -73.5v-211h62v-53h-127l-6 56h28q-39 -34 -76 -50.5
t-86 -16.5zM185 40q37 0 74 16t77 49l-30 -36v116l23 -18q-26 8 -59 13t-68 5t-64 -15.5t-29 -59.5q0 -30 20 -50t56 -20zM217 460q-20 0 -34 13.5t-14 31.5q0 19 13.5 32t34.5 13q20 0 33.5 -12t13.5 -33q1 -17 -11.5 -31t-35.5 -14z" />
    <glyph glyph-name="uni0228" unicode="&#x228;" horiz-adv-x="582" 
d="M39 0v53h78v457h-78v53h490v-167h-63v114h-267v-191h175v66h41v-188h-41v67h-175v-211h272v117h63v-170h-495zM329 -175q-43 0 -87 19v29q16 -4 30.5 -7t26.5 -3q17 0 27.5 6.5t10.5 19.5t-13.5 21.5t-43.5 9.5l31 80h33l-16 -58q38 -4 55 -21t17 -39q0 -31 -21 -44
t-50 -13z" />
    <glyph glyph-name="uni0229" unicode="&#x229;" horiz-adv-x="461" 
d="M247 -12q-62 0 -112.5 26t-80 73t-29.5 109q0 64 28 110.5t75 72t105 25.5q60 0 103.5 -25t66.5 -71t23 -108v-19h-336l1 46h262q0 39 -15.5 66.5t-42.5 42t-62 14.5q-37 0 -67 -17.5t-47.5 -50t-17.5 -78.5q0 -49 18 -84.5t50.5 -55t74.5 -19.5q45 0 83 18t66 45l26 -45
q-27 -31 -70 -53t-102 -22zM239 -175q-43 0 -87 19v29q16 -4 30.5 -7t26.5 -3q17 0 27.5 6.5t10.5 19.5t-13.5 21.5t-43.5 9.5l31 80h33l-16 -58q38 -4 55 -21t17 -39q0 -31 -21 -44t-50 -13z" />
    <glyph glyph-name="uni022A" unicode="&#x22a;" horiz-adv-x="709" 
d="M354 -11q-69 0 -125.5 23t-96.5 63.5t-61.5 93t-21.5 111.5t21.5 112t61.5 93.5t96.5 64t125.5 23.5t125.5 -23.5t96.5 -64t61.5 -93.5t21.5 -112t-21.5 -111.5t-61.5 -93t-96 -63.5t-126 -23zM354 49q51 0 91.5 18t69 50t43 73.5t14.5 89.5t-14.5 90.5t-43 74.5
t-69 50.5t-91.5 18.5q-52 0 -92 -18.5t-68 -51t-42.5 -75t-14.5 -90.5t14.5 -89.5t42.5 -73.5t68 -49.5t92 -17.5zM257 627q-20 0 -32.5 12t-12.5 31q0 20 12.5 31.5t32.5 11.5t32.5 -11.5t12.5 -31.5q0 -19 -12.5 -31t-32.5 -12zM449 627q-20 0 -32 12t-12 31q0 20 12 31.5
t32 11.5t32.5 -11.5t12.5 -31.5q0 -19 -12.5 -31t-32.5 -12zM248 793v45h210v-45h-210z" />
    <glyph glyph-name="uni022B" unicode="&#x22b;" horiz-adv-x="476" 
d="M237 -12q-63 0 -111 26t-74.5 73t-26.5 110t26.5 109.5t74.5 72t111 25.5q64 0 112 -25.5t75 -72t27 -108.5q0 -63 -27 -110t-75 -73.5t-112 -26.5zM237 46q42 0 73 19t48 53t17 80q0 45 -17 78t-48 51.5t-73 18.5q-41 0 -71.5 -18.5t-47.5 -52t-17 -78.5t17 -79
t47.5 -53t71.5 -19zM141 457q-20 0 -32.5 12t-12.5 31q0 20 12.5 31.5t32.5 11.5t32.5 -11.5t12.5 -31.5q0 -19 -12.5 -31t-32.5 -12zM333 457q-20 0 -32 12t-12 31q0 20 12 31.5t32 11.5t32.5 -11.5t12.5 -31.5q0 -19 -12.5 -31t-32.5 -12zM132 623v45h210v-45h-210z" />
    <glyph glyph-name="uni022C" unicode="&#x22c;" horiz-adv-x="709" 
d="M354 -11q-69 0 -125.5 23t-96.5 63.5t-61.5 93t-21.5 111.5t21.5 112t61.5 93.5t96.5 64t125.5 23.5t125.5 -23.5t96.5 -64t61.5 -93.5t21.5 -112t-21.5 -111.5t-61.5 -93t-96 -63.5t-126 -23zM354 49q51 0 91.5 18t69 50t43 73.5t14.5 89.5t-14.5 90.5t-43 74.5
t-69 50.5t-91.5 18.5q-52 0 -92 -18.5t-68 -51t-42.5 -75t-14.5 -90.5t14.5 -89.5t42.5 -73.5t68 -49.5t92 -17.5zM416 640q-22 0 -46.5 9.5t-47 18.5t-39.5 9q-25 0 -31 -33h-31q4 46 23.5 67t49.5 21q19 0 42.5 -9t46 -18.5t37.5 -9.5t24 8t13 27h29q-3 -37 -19 -63.5
t-51 -26.5zM249 792v45h210v-45h-210z" />
    <glyph glyph-name="uni022D" unicode="&#x22d;" horiz-adv-x="476" 
d="M237 -12q-63 0 -111 26t-74.5 73t-26.5 110t26.5 109.5t74.5 72t111 25.5q64 0 112 -25.5t75 -72t27 -108.5q0 -63 -27 -110t-75 -73.5t-112 -26.5zM237 46q42 0 73 19t48 53t17 80q0 45 -17 78t-48 51.5t-73 18.5q-41 0 -71.5 -18.5t-47.5 -52t-17 -78.5t17 -79
t47.5 -53t71.5 -19zM300 470q-22 0 -46.5 9.5t-47 18.5t-39.5 9q-25 0 -31 -33h-31q4 46 23.5 67t49.5 21q19 0 42.5 -9t46 -18.5t37.5 -9.5t24 8t13 27h29q-3 -37 -19 -63.5t-51 -26.5zM133 622v45h210v-45h-210z" />
    <glyph glyph-name="uni022E" unicode="&#x22e;" horiz-adv-x="709" 
d="M354 -11q-69 0 -125.5 23t-96.5 63.5t-61.5 93t-21.5 111.5t21.5 112t61.5 93.5t96.5 64t125.5 23.5t125.5 -23.5t96.5 -64t61.5 -93.5t21.5 -112t-21.5 -111.5t-61.5 -93t-96 -63.5t-126 -23zM354 49q51 0 91.5 18t69 50t43 73.5t14.5 89.5t-14.5 90.5t-43 74.5
t-69 50.5t-91.5 18.5q-52 0 -92 -18.5t-68 -51t-42.5 -75t-14.5 -90.5t14.5 -89.5t42.5 -73.5t68 -49.5t92 -17.5zM353 630q-20 0 -34 13.5t-14 31.5q0 19 13.5 32t34.5 13q20 0 33.5 -12t13.5 -33q1 -17 -11.5 -31t-35.5 -14z" />
    <glyph glyph-name="uni022F" unicode="&#x22f;" horiz-adv-x="476" 
d="M237 -12q-63 0 -111 26t-74.5 73t-26.5 110t26.5 109.5t74.5 72t111 25.5q64 0 112 -25.5t75 -72t27 -108.5q0 -63 -27 -110t-75 -73.5t-112 -26.5zM237 46q42 0 73 19t48 53t17 80q0 45 -17 78t-48 51.5t-73 18.5q-41 0 -71.5 -18.5t-47.5 -52t-17 -78.5t17 -79
t47.5 -53t71.5 -19zM237 460q-20 0 -34 13.5t-14 31.5q0 19 13.5 32t34.5 13q20 0 33.5 -12t13.5 -33q1 -17 -11.5 -31t-35.5 -14z" />
    <glyph glyph-name="uni0230" unicode="&#x230;" horiz-adv-x="709" 
d="M354 -11q-69 0 -125.5 23t-96.5 63.5t-61.5 93t-21.5 111.5t21.5 112t61.5 93.5t96.5 64t125.5 23.5t125.5 -23.5t96.5 -64t61.5 -93.5t21.5 -112t-21.5 -111.5t-61.5 -93t-96 -63.5t-126 -23zM354 49q51 0 91.5 18t69 50t43 73.5t14.5 89.5t-14.5 90.5t-43 74.5
t-69 50.5t-91.5 18.5q-52 0 -92 -18.5t-68 -51t-42.5 -75t-14.5 -90.5t14.5 -89.5t42.5 -73.5t68 -49.5t92 -17.5zM353 630q-20 0 -34 13.5t-14 31.5q0 19 13.5 32t34.5 13q20 0 33.5 -12t13.5 -33q1 -17 -11.5 -31t-35.5 -14zM248 790v45h210v-45h-210z" />
    <glyph glyph-name="uni0231" unicode="&#x231;" horiz-adv-x="476" 
d="M237 -12q-63 0 -111 26t-74.5 73t-26.5 110t26.5 109.5t74.5 72t111 25.5q64 0 112 -25.5t75 -72t27 -108.5q0 -63 -27 -110t-75 -73.5t-112 -26.5zM237 46q42 0 73 19t48 53t17 80q0 45 -17 78t-48 51.5t-73 18.5q-41 0 -71.5 -18.5t-47.5 -52t-17 -78.5t17 -79
t47.5 -53t71.5 -19zM237 460q-20 0 -34 13.5t-14 31.5q0 19 13.5 32t34.5 13q20 0 33.5 -12t13.5 -33q1 -17 -11.5 -31t-35.5 -14zM132 620v45h210v-45h-210z" />
    <glyph glyph-name="uni0232" unicode="&#x232;" horiz-adv-x="632" 
d="M195 0v53h82v188l-188 269h-75v53h234v-53h-71l148 -216l143 216h-72v53h222v-53h-77l-183 -268v-189h83v-53h-246zM217 643v45h210v-45h-210z" />
    <glyph glyph-name="uni0233" unicode="&#x233;" horiz-adv-x="519" 
d="M101 -159v60h45q26 0 42 4t27.5 18t21.5 44l21 58h-31l-146 315h-73v53h206v-53h-58l118 -267l105 267h-68v53h205v-53h-64l-146 -363q-18 -46 -33.5 -76t-42.5 -45t-78 -15h-51zM158 473v45h210v-45h-210z" />
    <glyph glyph-name="uni0237" unicode="&#x237;" horiz-adv-x="247" 
d="M5 -152v58h42q42 0 53.5 20.5t11.5 63.5v350h-82v53h156v-382q0 -33 -3 -62.5t-16 -52t-41 -35.5t-78 -13h-43z" />
    <glyph glyph-name="uni0259" unicode="&#x259;" horiz-adv-x="461" 
d="M232 -11q-61 0 -105 25t-68 71t-24 108v19h336l-1 -46h-262q0 -39 16.5 -66.5t45.5 -42t65 -14.5t64 18t44.5 51.5t16.5 79.5q0 48 -17 83t-47 54t-70 19q-48 0 -88 -18t-70 -45l-26 45q29 29 74.5 52t106.5 23q60 0 108.5 -25.5t76.5 -71.5t28 -108q0 -65 -27 -112.5
t-73.5 -73t-103.5 -25.5z" />
    <glyph glyph-name="uni02BB" unicode="&#x2bb;" horiz-adv-x="301" 
d="M201 591v-38q-30 -5 -42 -21.5t-12 -56.5h51v-95h-98v80q0 62 23 96.5t78 34.5z" />
    <glyph glyph-name="uni02BC" unicode="&#x2bc;" horiz-adv-x="297" 
d="M100 443v33q28 5 41.5 18.5t13.5 44.5h-54v89h96l-1 -90q1 -44 -22.5 -69.5t-73.5 -25.5z" />
    <glyph glyph-name="uni02BE" unicode="&#x2be;" horiz-adv-x="279" 
d="M100 428v31q21 0 33 13t12 31t-12 30.5t-33 12.5v30q38 0 58.5 -21t20.5 -52t-21 -53t-58 -22z" />
    <glyph glyph-name="uni02BF" unicode="&#x2bf;" horiz-adv-x="279" 
d="M179 428v31q-21 0 -33 13t-12 31t12 30.5t33 12.5v30q-38 0 -58.5 -21t-20.5 -52t21 -53t58 -22z" />
    <glyph glyph-name="circumflex" unicode="&#x2c6;" horiz-adv-x="444" 
d="M100 449l83 157h78l83 -157h-56l-66 125l-66 -125h-56z" />
    <glyph glyph-name="caron" unicode="&#x2c7;" horiz-adv-x="431" 
d="M181 448l-81 151h53l64 -109l62 109h52l-79 -151h-71z" />
    <glyph glyph-name="uni02C8" unicode="&#x2c8;" horiz-adv-x="141" 
d="M40 393v200h61v-200h-61z" />
    <glyph glyph-name="uni02C9" unicode="&#x2c9;" horiz-adv-x="410" 
d="M100 473v45h210v-45h-210z" />
    <glyph glyph-name="uni02CA" unicode="&#x2ca;" horiz-adv-x="337" 
d="M100 477l53 145h84l-90 -145h-47z" />
    <glyph glyph-name="uni02CB" unicode="&#x2cb;" horiz-adv-x="337" 
d="M190 477l-90 145h84l53 -145h-47z" />
    <glyph glyph-name="uni02CC" unicode="&#x2cc;" horiz-adv-x="141" 
d="M40 -50v200h61v-200h-61z" />
    <glyph glyph-name="breve" unicode="&#x2d8;" horiz-adv-x="420" 
d="M210 450q-45 -1 -75 26.5t-35 73.5h49q11 -55 61 -55q23 0 39.5 14.5t20.5 40.5h50q-5 -46 -34.5 -72.5t-75.5 -27.5z" />
    <glyph glyph-name="dotaccent" unicode="&#x2d9;" horiz-adv-x="295" 
d="M148 460q-20 0 -34 13.5t-14 31.5q0 19 13.5 32t34.5 13q20 0 33.5 -12t13.5 -33q1 -17 -11.5 -31t-35.5 -14z" />
    <glyph glyph-name="ring" unicode="&#x2da;" horiz-adv-x="358" 
d="M179 428q-37 0 -58 22t-21 53t21 52t58 21q38 0 58.5 -21t20.5 -52t-21 -53t-58 -22zM179 459q21 0 32.5 13t11.5 31t-11.5 30.5t-32.5 12.5t-33 -12.5t-12 -30.5t12 -31t33 -13z" />
    <glyph glyph-name="ogonek" unicode="&#x2db;" horiz-adv-x="342" 
d="M167 -169q-34 0 -57 20.5t-23 53.5q0 25 13.5 47.5t39.5 47.5h43q-21 -22 -33 -42t-12 -38q0 -22 13.5 -32.5t33.5 -10.5q22 0 44 13v-40q-17 -10 -31 -14.5t-31 -4.5z" />
    <glyph glyph-name="tilde" unicode="&#x2dc;" horiz-adv-x="465" 
d="M295 470q-22 0 -46.5 9.5t-47 18.5t-39.5 9q-25 0 -31 -33h-31q4 46 23.5 67t49.5 21q19 0 42.5 -9t46 -18.5t37.5 -9.5t24 8t13 27h29q-3 -37 -19 -63.5t-51 -26.5z" />
    <glyph glyph-name="hungarumlaut" unicode="&#x2dd;" horiz-adv-x="475" 
d="M100 477l56 152h84l-94 -152h-46zM235 477l56 152h84l-93 -152h-47z" />
    <glyph glyph-name="gravecomb" unicode="&#x300;" 
d="M-24 477l-90 145h84l53 -145h-47z" />
    <glyph glyph-name="acutecomb" unicode="&#x301;" 
d="M-23 477l53 145h84l-90 -145h-47z" />
    <glyph glyph-name="uni0302" unicode="&#x302;" 
d="M-122 449l83 157h78l83 -157h-56l-66 125l-66 -125h-56z" />
    <glyph glyph-name="tildecomb" unicode="&#x303;" 
d="M63 470q-22 0 -46.5 9.5t-47 18.5t-39.5 9q-25 0 -31 -33h-31q4 46 23.5 67t49.5 21q19 0 42.5 -9t46 -18.5t37.5 -9.5t24 8t13 27h29q-3 -37 -19 -63.5t-51 -26.5z" />
    <glyph glyph-name="uni0304" unicode="&#x304;" 
d="M-105 473v45h210v-45h-210z" />
    <glyph glyph-name="uni0306" unicode="&#x306;" 
d="M0 450q-45 -1 -75 26.5t-35 73.5h49q11 -55 61 -55q23 0 39.5 14.5t20.5 40.5h50q-5 -46 -34.5 -72.5t-75.5 -27.5z" />
    <glyph glyph-name="uni0307" unicode="&#x307;" 
d="M0 460q-20 0 -34 13.5t-14 31.5q0 19 13.5 32t34.5 13q20 0 33.5 -12t13.5 -33q1 -17 -11.5 -31t-35.5 -14z" />
    <glyph glyph-name="uni0308" unicode="&#x308;" 
d="M-96 457q-20 0 -32.5 12t-12.5 31q0 20 12.5 31.5t32.5 11.5t32.5 -11.5t12.5 -31.5q0 -19 -12.5 -31t-32.5 -12zM96 457q-20 0 -32 12t-12 31q0 20 12 31.5t32 11.5t32.5 -11.5t12.5 -31.5q0 -19 -12.5 -31t-32.5 -12z" />
    <glyph glyph-name="hookabovecomb" unicode="&#x309;" 
d="M0 436l-14 44q17 5 25.5 14t8.5 22t-9.5 20t-24.5 7q-11 0 -21.5 -3.5t-21.5 -9.5l-15 42q12 7 28 12t35 5q37 0 59.5 -20t22.5 -51t-19 -51.5t-54 -30.5z" />
    <glyph glyph-name="uni030A" unicode="&#x30a;" 
d="M0 428q-37 0 -58 22t-21 53t21 52t58 21q38 0 58.5 -21t20.5 -52t-21 -53t-58 -22zM0 459q21 0 32.5 13t11.5 31t-11.5 30.5t-32.5 12.5t-33 -12.5t-12 -30.5t12 -31t33 -13z" />
    <glyph glyph-name="uni030B" unicode="&#x30b;" 
d="M-89 477l56 152h84l-94 -152h-46zM46 477l56 152h84l-93 -152h-47z" />
    <glyph glyph-name="uni030C" unicode="&#x30c;" 
d="M-35 448l-81 151h53l64 -109l62 109h52l-79 -151h-71z" />
    <glyph glyph-name="uni030F" unicode="&#x30f;" 
d="M-103 477l-94 152h84l57 -152h-47zM32 477l-93 152h84l56 -152h-47z" />
    <glyph glyph-name="uni0311" unicode="&#x311;" 
d="M-117 450q5 49 36.5 78t80.5 29q48 0 79.5 -29t36.5 -78h-59q-9 51 -57 51q-49 0 -58 -51h-59z" />
    <glyph glyph-name="uni0312" unicode="&#x312;" 
d="M48 656v-32q-29 -5 -42.5 -21.5t-13.5 -45.5h54v-87h-95v89q0 45 23.5 71t73.5 26z" />
    <glyph glyph-name="uni031B" unicode="&#x31b;" 
d="M-27 346v47h12q28 0 48 15.5t23 52.5h81q-7 -53 -43 -84t-92 -31h-29z" />
    <glyph glyph-name="dotbelowcomb" unicode="&#x323;" 
d="M0 -140q-20 0 -34 13.5t-14 31.5q0 19 13.5 32t34.5 13q20 0 33.5 -12t13.5 -33q1 -17 -11.5 -31t-35.5 -14z" />
    <glyph glyph-name="uni0324" unicode="&#x324;" 
d="M-96 -136q-20 0 -32.5 12t-12.5 31q0 20 12.5 31.5t32.5 11.5t32.5 -11.5t12.5 -31.5q0 -19 -12.5 -31t-32.5 -12zM96 -136q-20 0 -32 12t-12 31q0 20 12 31.5t32 11.5t32.5 -11.5t12.5 -31.5q0 -19 -12.5 -31t-32.5 -12z" />
    <glyph glyph-name="uni0326" unicode="&#x326;" 
d="M-49 -236v32q29 5 42.5 21.5t13.5 45.5h-54v87h95v-89q0 -45 -23.5 -71t-73.5 -26z" />
    <glyph glyph-name="uni0327" unicode="&#x327;" 
d="M2 -175q-43 0 -87 19v29q16 -4 30.5 -7t26.5 -3q17 0 27.5 6.5t10.5 19.5t-13.5 21.5t-43.5 9.5l31 80h33l-16 -58q38 -4 55 -21t17 -39q0 -31 -21 -44t-50 -13z" />
    <glyph glyph-name="uni0328" unicode="&#x328;" 
d="M-16 -169q-34 0 -57 20.5t-23 53.5q0 25 13.5 47.5t39.5 47.5h43q-21 -22 -33 -42t-12 -38q0 -22 13.5 -32.5t33.5 -10.5q22 0 44 13v-40q-17 -10 -31 -14.5t-31 -4.5z" />
    <glyph glyph-name="uni032E" unicode="&#x32e;" 
d="M0 -150q-45 -1 -75 26.5t-35 73.5h49q11 -55 61 -55q23 0 39.5 14.5t20.5 40.5h50q-5 -46 -34.5 -72.5t-75.5 -27.5z" />
    <glyph glyph-name="uni0331" unicode="&#x331;" 
d="M-105 -82v45h210v-45h-210z" />
    <glyph glyph-name="uni0335" unicode="&#x335;" 
d="M-200 206v56h399v-56h-399z" />
    <glyph glyph-name="uni0394" unicode="&#x394;" horiz-adv-x="570" 
d="M41 0v33l207 530h69l212 -530v-33h-488zM111 55h325l-164 429z" />
    <glyph glyph-name="Sigma" unicode="&#x3a3;" horiz-adv-x="455" 
d="M42 0v39l208 239l-200 247v38h365v-58h-262l196 -227l-203 -218h285v-60h-389z" />
    <glyph glyph-name="uni03A9" unicode="&#x3a9;" horiz-adv-x="696" 
d="M63 0v53h145q-50 31 -83 71.5t-49 86.5t-16 92q0 70 34 131.5t98.5 100t155.5 38.5q92 0 156 -38.5t98 -100t34 -130.5q0 -46 -16 -92.5t-48.5 -87t-83.5 -71.5h145v-53h-235v51q53 26 87.5 67t51 88.5t16.5 95.5q0 55 -23 103t-68.5 77.5t-113.5 29.5t-113.5 -29.5
t-68.5 -77.5t-23 -103q0 -48 16.5 -95.5t51 -88.5t87.5 -67v-51h-235z" />
    <glyph glyph-name="uni03BC" unicode="&#x3bc;" horiz-adv-x="510" 
d="M77 -135v333h74v-333h-74zM208 -10q-46 0 -75 18t-42.5 48t-13.5 66v218h-66v53h140v-263q0 -37 18 -59t56 -22q44 0 81 21t70 58l-23 -39v251h-71v53h144v-340h73v-53h-144l-3 65l26 5q-39 -37 -81.5 -58.5t-88.5 -21.5z" />
    <glyph glyph-name="pi" unicode="&#x3c0;" horiz-adv-x="568" 
d="M438 -8q-55 0 -78 29t-23 81q0 29 6.5 65t16.5 75t21 76h-136l-16 -200q-3 -41 -18 -67.5t-47.5 -38.5t-91.5 -12v32q23 0 41.5 10t32 32.5t19.5 60.5l27 183h-39q-21 0 -33 -14t-14 -40h-37q0 35 10.5 64t34 47t61.5 18h343v-75h-95q-5 -38 -9.5 -77t-7 -72.5
t-2.5 -55.5q0 -37 16 -54t44 -17q11 0 22.5 2t23.5 6v-38q-16 -10 -35 -15t-37 -5z" />
    <glyph glyph-name="uni1E02" unicode="&#x1e02;" horiz-adv-x="580" 
d="M39 0v53h78v457h-78v53h279q94 0 143.5 -35.5t49.5 -104.5q0 -46 -23.5 -78t-61.5 -45q38 -9 63.5 -29.5t38.5 -49t13 -62.5q0 -40 -19 -76.5t-63.5 -59.5t-119.5 -23h-300zM199 53h126q71 0 102 29t31 80q0 47 -33 76.5t-103 29.5h-123v-215zM199 323h114q62 0 89.5 26
t27.5 71q0 50 -32 70t-103 20h-96v-187zM255 630q-20 0 -34 13.5t-14 31.5q0 19 13.5 32t34.5 13q20 0 33.5 -12t13.5 -33q1 -17 -11.5 -31t-35.5 -14z" />
    <glyph glyph-name="uni1E03" unicode="&#x1e03;" horiz-adv-x="522" 
d="M172 573v-235h-24q32 32 75 48.5t83 16.5q53 0 96.5 -23t69 -68t25.5 -110q0 -67 -28.5 -114.5t-74.5 -72.5t-101 -25q-43 0 -79 16t-63 49l21 -10v-45h-147v53h73v468h-71v52h145zM286 346q-34 0 -71 -16.5t-68 -50.5l25 40v-254l-23 41q26 -28 61.5 -44.5t69.5 -16.5
q59 0 99.5 38.5t40.5 112.5q0 72 -38 111t-96 39zM313 460q-20 0 -34 13.5t-14 31.5q0 19 13.5 32t34.5 13q20 0 33.5 -12t13.5 -33q1 -17 -11.5 -31t-35.5 -14z" />
    <glyph glyph-name="uni1E08" unicode="&#x1e08;" horiz-adv-x="665" 
d="M344 -11q-66 0 -120 21.5t-93.5 60.5t-60.5 92.5t-21 118.5q0 84 36.5 150t103 103.5t156.5 37.5q54 0 97.5 -16.5t73 -46.5t42.5 -69h-22v122h60v-170l-54 -2q-31 65 -78.5 93.5t-114.5 28.5t-116 -30.5t-75.5 -82.5t-26.5 -117q0 -53 16.5 -96t46 -74t69 -47.5
t86.5 -16.5q42 0 81 13t70 42.5t48 77.5l60 -30q-24 -61 -64 -96.5t-91.5 -50.5t-108.5 -16zM339 -175q-43 0 -87 19v29q16 -4 30.5 -7t26.5 -3q17 0 27.5 6.5t10.5 19.5t-13.5 21.5t-43.5 9.5l31 80h33l-16 -58q38 -4 55 -21t17 -39q0 -31 -21 -44t-50 -13zM326 647l53 145
h84l-90 -145h-47z" />
    <glyph glyph-name="uni1E09" unicode="&#x1e09;" horiz-adv-x="469" 
d="M240 -10q-62 0 -110.5 27t-76 74t-27.5 108t26.5 107t73 72t106.5 26q58 0 96 -26t48 -64h-14v81h62v-141h-56q-9 43 -40.5 67.5t-78.5 24.5q-43 0 -76 -18.5t-51.5 -51.5t-18.5 -75q0 -45 18.5 -79.5t51 -54t74.5 -19.5q53 0 85.5 20.5t59.5 51.5l31 -45
q-29 -38 -75 -61.5t-108 -23.5zM242 -175q-43 0 -87 19v29q16 -4 30.5 -7t26.5 -3q17 0 27.5 6.5t10.5 19.5t-13.5 21.5t-43.5 9.5l31 80h33l-16 -58q38 -4 55 -21t17 -39q0 -31 -21 -44t-50 -13zM221 477l53 145h84l-90 -145h-47z" />
    <glyph glyph-name="uni1E0A" unicode="&#x1e0a;" horiz-adv-x="684" 
d="M40 0v53h78v457h-78v53h306q74 0 128 -23.5t90 -63t53.5 -89t17.5 -100.5q0 -62 -18 -114.5t-54 -91t-90 -60t-126 -21.5h-307zM200 53h139q56 0 96.5 18t66 49.5t37.5 74t12 90.5q0 43 -12.5 83t-38 72t-65 51t-93.5 19h-142v-457zM372 630q-20 0 -34 13.5t-14 31.5
q0 19 13.5 32t34.5 13q20 0 33.5 -12t13.5 -33q1 -17 -11.5 -31t-35.5 -14z" />
    <glyph glyph-name="uni1E0B" unicode="&#x1e0b;" horiz-adv-x="513" 
d="M229 -11q-54 0 -99.5 24.5t-73.5 71.5t-28 112q0 67 26.5 112.5t70.5 69.5t96 24q42 0 83.5 -15.5t73.5 -43.5l-24 -9v186h-70v52h144v-520h62v-53h-136v52l23 -4q-29 -28 -65.5 -43.5t-82.5 -15.5zM245 45q39 0 72.5 15t61.5 40l-25 -34v260l25 -36q-31 27 -69.5 42
t-73.5 15q-38 0 -67.5 -18t-46.5 -52.5t-17 -85.5q0 -47 19 -79.5t50.5 -49.5t70.5 -17zM391 640q-20 0 -34 13.5t-14 31.5q0 19 13.5 32t34.5 13q20 0 33.5 -12t13.5 -33q1 -17 -11.5 -31t-35.5 -14z" />
    <glyph glyph-name="uni1E0C" unicode="&#x1e0c;" horiz-adv-x="684" 
d="M40 0v53h78v457h-78v53h306q74 0 128 -23.5t90 -63t53.5 -89t17.5 -100.5q0 -62 -18 -114.5t-54 -91t-90 -60t-126 -21.5h-307zM200 53h139q56 0 96.5 18t66 49.5t37.5 74t12 90.5q0 43 -12.5 83t-38 72t-65 51t-93.5 19h-142v-457zM375 -140q-20 0 -34 13.5t-14 31.5
q0 19 13.5 32t34.5 13q20 0 33.5 -12t13.5 -33q1 -17 -11.5 -31t-35.5 -14z" />
    <glyph glyph-name="uni1E0D" unicode="&#x1e0d;" horiz-adv-x="513" 
d="M229 -11q-54 0 -99.5 24.5t-73.5 71.5t-28 112q0 67 26.5 112.5t70.5 69.5t96 24q42 0 83.5 -15.5t73.5 -43.5l-24 -9v186h-70v52h144v-520h62v-53h-136v52l23 -4q-29 -28 -65.5 -43.5t-82.5 -15.5zM245 45q39 0 72.5 15t61.5 40l-25 -34v260l25 -36q-31 27 -69.5 42
t-73.5 15q-38 0 -67.5 -18t-46.5 -52.5t-17 -85.5q0 -47 19 -79.5t50.5 -49.5t70.5 -17zM265 -140q-20 0 -34 13.5t-14 31.5q0 19 13.5 32t34.5 13q20 0 33.5 -12t13.5 -33q1 -17 -11.5 -31t-35.5 -14z" />
    <glyph glyph-name="uni1E0E" unicode="&#x1e0e;" horiz-adv-x="684" 
d="M40 0v53h78v457h-78v53h306q74 0 128 -23.5t90 -63t53.5 -89t17.5 -100.5q0 -62 -18 -114.5t-54 -91t-90 -60t-126 -21.5h-307zM200 53h139q56 0 96.5 18t66 49.5t37.5 74t12 90.5q0 43 -12.5 83t-38 72t-65 51t-93.5 19h-142v-457zM270 -82v45h210v-45h-210z" />
    <glyph glyph-name="uni1E0F" unicode="&#x1e0f;" horiz-adv-x="513" 
d="M229 -11q-54 0 -99.5 24.5t-73.5 71.5t-28 112q0 67 26.5 112.5t70.5 69.5t96 24q42 0 83.5 -15.5t73.5 -43.5l-24 -9v186h-70v52h144v-520h62v-53h-136v52l23 -4q-29 -28 -65.5 -43.5t-82.5 -15.5zM245 45q39 0 72.5 15t61.5 40l-25 -34v260l25 -36q-31 27 -69.5 42
t-73.5 15q-38 0 -67.5 -18t-46.5 -52.5t-17 -85.5q0 -47 19 -79.5t50.5 -49.5t70.5 -17zM160 -82v45h210v-45h-210z" />
    <glyph glyph-name="uni1E14" unicode="&#x1e14;" horiz-adv-x="582" 
d="M39 0v53h78v457h-78v53h490v-167h-63v114h-267v-191h175v66h41v-188h-41v67h-175v-211h272v117h63v-170h-495zM205 643v45h210v-45h-210zM286 761l-90 145h84l53 -145h-47z" />
    <glyph glyph-name="uni1E15" unicode="&#x1e15;" horiz-adv-x="461" 
d="M247 -12q-62 0 -112.5 26t-80 73t-29.5 109q0 64 28 110.5t75 72t105 25.5q60 0 103.5 -25t66.5 -71t23 -108v-19h-336l1 46h262q0 39 -15.5 66.5t-42.5 42t-62 14.5q-37 0 -67 -17.5t-47.5 -50t-17.5 -78.5q0 -49 18 -84.5t50.5 -55t74.5 -19.5q45 0 83 18t66 45l26 -45
q-27 -31 -70 -53t-102 -22zM131 473v45h210v-45h-210zM212 591l-90 145h84l53 -145h-47z" />
    <glyph glyph-name="uni1E16" unicode="&#x1e16;" horiz-adv-x="582" 
d="M39 0v53h78v457h-78v53h490v-167h-63v114h-267v-191h175v66h41v-188h-41v67h-175v-211h272v117h63v-170h-495zM205 643v45h210v-45h-210zM287 761l53 145h84l-90 -145h-47z" />
    <glyph glyph-name="uni1E17" unicode="&#x1e17;" horiz-adv-x="461" 
d="M247 -12q-62 0 -112.5 26t-80 73t-29.5 109q0 64 28 110.5t75 72t105 25.5q60 0 103.5 -25t66.5 -71t23 -108v-19h-336l1 46h262q0 39 -15.5 66.5t-42.5 42t-62 14.5q-37 0 -67 -17.5t-47.5 -50t-17.5 -78.5q0 -49 18 -84.5t50.5 -55t74.5 -19.5q45 0 83 18t66 45l26 -45
q-27 -31 -70 -53t-102 -22zM131 473v45h210v-45h-210zM213 591l53 145h84l-90 -145h-47z" />
    <glyph glyph-name="uni1E1C" unicode="&#x1e1c;" horiz-adv-x="582" 
d="M39 0v53h78v457h-78v53h490v-167h-63v114h-267v-191h175v66h41v-188h-41v67h-175v-211h272v117h63v-170h-495zM329 -175q-43 0 -87 19v29q16 -4 30.5 -7t26.5 -3q17 0 27.5 6.5t10.5 19.5t-13.5 21.5t-43.5 9.5l31 80h33l-16 -58q38 -4 55 -21t17 -39q0 -31 -21 -44
t-50 -13zM310 620q-45 -1 -75 26.5t-35 73.5h49q11 -55 61 -55q23 0 39.5 14.5t20.5 40.5h50q-5 -46 -34.5 -72.5t-75.5 -27.5z" />
    <glyph glyph-name="uni1E1D" unicode="&#x1e1d;" horiz-adv-x="461" 
d="M247 -12q-62 0 -112.5 26t-80 73t-29.5 109q0 64 28 110.5t75 72t105 25.5q60 0 103.5 -25t66.5 -71t23 -108v-19h-336l1 46h262q0 39 -15.5 66.5t-42.5 42t-62 14.5q-37 0 -67 -17.5t-47.5 -50t-17.5 -78.5q0 -49 18 -84.5t50.5 -55t74.5 -19.5q45 0 83 18t66 45l26 -45
q-27 -31 -70 -53t-102 -22zM239 -175q-43 0 -87 19v29q16 -4 30.5 -7t26.5 -3q17 0 27.5 6.5t10.5 19.5t-13.5 21.5t-43.5 9.5l31 80h33l-16 -58q38 -4 55 -21t17 -39q0 -31 -21 -44t-50 -13zM236 450q-45 -1 -75 26.5t-35 73.5h49q11 -55 61 -55q23 0 39.5 14.5t20.5 40.5
h50q-5 -46 -34.5 -72.5t-75.5 -27.5z" />
    <glyph glyph-name="uni1E1E" unicode="&#x1e1e;" horiz-adv-x="542" 
d="M39 0v53h78v457h-78v53h481v-171h-63v118h-258v-189h170v61h42v-183h-42v65h-170v-211h78v-53h-238zM299 630q-20 0 -34 13.5t-14 31.5q0 19 13.5 32t34.5 13q20 0 33.5 -12t13.5 -33q1 -17 -11.5 -31t-35.5 -14z" />
    <glyph glyph-name="uni1E1F" unicode="&#x1e1f;" horiz-adv-x="316" 
d="M41 0v53h78v287h-77v53h77v84q0 36 12.5 63t39 41.5t66.5 14.5q41 0 73 -20t36 -72l-57 -16q-4 26 -14.5 41t-34.5 15q-22 0 -34.5 -16.5t-12.5 -51.5v-83h120v-53h-120v-287h101v-53h-253zM237 653q-20 0 -34 13.5t-14 31.5q0 19 13.5 32t34.5 13q20 0 33.5 -12
t13.5 -33q1 -17 -11.5 -31t-35.5 -14z" />
    <glyph glyph-name="uni1E20" unicode="&#x1e20;" horiz-adv-x="684" 
d="M356 -10q-97 0 -166 37.5t-105.5 104t-36.5 151.5q0 87 39 152t108 101.5t159 36.5q83 0 138.5 -35t84.5 -91h-30v116h65v-174h-58q-27 61 -78 93t-119 32t-117.5 -27.5t-76.5 -78t-27 -120.5q0 -73 27 -126.5t77.5 -82.5t118.5 -29q42 1 78 12t63.5 33t43 57t15.5 83
l45 -7h-164v56h199v-30q0 -60 -18.5 -109t-54.5 -83.5t-89 -53t-121 -18.5zM246 643v45h210v-45h-210z" />
    <glyph glyph-name="uni1E21" unicode="&#x1e21;" horiz-adv-x="513" 
d="M235 -188q-35 0 -73 6.5t-75 17.5l15 58q35 -10 68.5 -16.5t62.5 -6.5q61 0 95.5 28t34.5 87v70l23 4q-30 -31 -71.5 -47t-82.5 -16q-55 0 -101 24t-73 69.5t-27 109.5q0 66 26.5 111t72 68t100.5 23q40 0 84 -17t68 -46h-20v54h141v-53h-66v-349q0 -64 -26.5 -103.5
t-72 -57.5t-103.5 -18zM239 348q-38 0 -67.5 -17.5t-46.5 -51.5t-17 -84q0 -46 18.5 -78t50 -48.5t70.5 -16.5q35 0 73.5 15.5t66.5 43.5l-24 -37l-1 247l25 -32q-31 26 -71 42.5t-77 16.5zM141 473v45h210v-45h-210z" />
    <glyph glyph-name="uni1E24" unicode="&#x1e24;" horiz-adv-x="697" 
d="M39 0v53h78v457h-78v53h238v-53h-78v-192h300v192h-79v53h238v-53h-78v-457h78v-53h-238v53h79v208h-300v-208h78v-53h-238zM347 -140q-20 0 -34 13.5t-14 31.5q0 19 13.5 32t34.5 13q20 0 33.5 -12t13.5 -33q1 -17 -11.5 -31t-35.5 -14z" />
    <glyph glyph-name="uni1E25" unicode="&#x1e25;" horiz-adv-x="521" 
d="M12 0v53h73v468h-72v52h146v-238l-27 -5q43 32 86 52.5t89 20.5q54 0 92 -33.5t38 -97.5v-219h72v-53h-211v53h65v205q0 41 -19.5 64t-54.5 23q-38 0 -79 -18.5t-76 -45.5l25 36v-264h64v-53h-211zM261 -140q-20 0 -34 13.5t-14 31.5q0 19 13.5 32t34.5 13q20 0 33.5 -12
t13.5 -33q1 -17 -11.5 -31t-35.5 -14z" />
    <glyph glyph-name="uni1E2A" unicode="&#x1e2a;" horiz-adv-x="697" 
d="M39 0v53h78v457h-78v53h238v-53h-78v-192h300v192h-79v53h238v-53h-78v-457h78v-53h-238v53h79v208h-300v-208h78v-53h-238zM347 -150q-45 -1 -75 26.5t-35 73.5h49q11 -55 61 -55q23 0 39.5 14.5t20.5 40.5h50q-5 -46 -34.5 -72.5t-75.5 -27.5z" />
    <glyph glyph-name="uni1E2B" unicode="&#x1e2b;" horiz-adv-x="521" 
d="M12 0v53h73v468h-72v52h146v-238l-27 -5q43 32 86 52.5t89 20.5q54 0 92 -33.5t38 -97.5v-219h72v-53h-211v53h65v205q0 41 -19.5 64t-54.5 23q-38 0 -79 -18.5t-76 -45.5l25 36v-264h64v-53h-211zM261 -150q-45 -1 -75 26.5t-35 73.5h49q11 -55 61 -55q23 0 39.5 14.5
t20.5 40.5h50q-5 -46 -34.5 -72.5t-75.5 -27.5z" />
    <glyph glyph-name="uni1E2E" unicode="&#x1e2e;" horiz-adv-x="339" 
d="M50 0v53h78v457h-78v53h239v-53h-79v-457h79v-53h-239zM74 627q-20 0 -32.5 12t-12.5 31q0 20 12.5 31.5t32.5 11.5t32.5 -11.5t12.5 -31.5q0 -19 -12.5 -31t-32.5 -12zM266 627q-20 0 -32 12t-12 31q0 20 12 31.5t32 11.5t32.5 -11.5t12.5 -31.5q0 -19 -12.5 -31
t-32.5 -12zM147 797l53 145h84l-90 -145h-47z" />
    <glyph glyph-name="uni1E2F" unicode="&#x1e2f;" horiz-adv-x="267" 
d="M22 0v53h76v287h-75v53h148v-340h71v-53h-220zM29 457q-20 0 -32.5 12t-12.5 31q0 20 12.5 31.5t32.5 11.5t32.5 -11.5t12.5 -31.5q0 -19 -12.5 -31t-32.5 -12zM221 457q-20 0 -32 12t-12 31q0 20 12 31.5t32 11.5t32.5 -11.5t12.5 -31.5q0 -19 -12.5 -31t-32.5 -12z
M102 627l53 145h84l-90 -145h-47z" />
    <glyph glyph-name="uni1E36" unicode="&#x1e36;" horiz-adv-x="525" 
d="M39 0v53h78v457h-78v53h238v-53h-78v-457h234v173h66v-226h-460zM276 -140q-20 0 -34 13.5t-14 31.5q0 19 13.5 32t34.5 13q20 0 33.5 -12t13.5 -33q1 -17 -11.5 -31t-35.5 -14z" />
    <glyph glyph-name="uni1E37" unicode="&#x1e37;" horiz-adv-x="260" 
d="M27 0v53h73v468h-71v52h145v-520h64v-53h-211zM135 -140q-20 0 -34 13.5t-14 31.5q0 19 13.5 32t34.5 13q20 0 33.5 -12t13.5 -33q1 -17 -11.5 -31t-35.5 -14z" />
    <glyph glyph-name="uni1E3A" unicode="&#x1e3a;" horiz-adv-x="525" 
d="M39 0v53h78v457h-78v53h238v-53h-78v-457h234v173h66v-226h-460zM171 -82v45h210v-45h-210z" />
    <glyph glyph-name="uni1E3B" unicode="&#x1e3b;" horiz-adv-x="260" 
d="M27 0v53h73v468h-71v52h145v-520h64v-53h-211zM30 -82v45h210v-45h-210z" />
    <glyph glyph-name="uni1E40" unicode="&#x1e40;" horiz-adv-x="824" 
d="M40 0v53h76v457h-76v53h191l184 -395l175 395h194v-53h-76v-457h76v-53h-227v53h73v443l-212 -467h-26l-215 467v-443h73v-53h-210zM409 630q-20 0 -34 13.5t-14 31.5q0 19 13.5 32t34.5 13q20 0 33.5 -12t13.5 -33q1 -17 -11.5 -31t-35.5 -14z" />
    <glyph glyph-name="uni1E41" unicode="&#x1e41;" horiz-adv-x="787" 
d="M22 0v53h76v287h-76v53h149v-49l-27 -8q41 30 83.5 48.5t83.5 18.5q61 0 95 -37.5t34 -95.5v-217h72v-53h-211v53h66v205q0 41 -20 64t-55 23q-33 0 -72.5 -16t-77.5 -42l29 29v-263h71v-53h-220zM574 0v53h66v205q0 41 -20 64t-55 23q-34 0 -69.5 -14.5t-67.5 -37.5
l-15 41q42 30 83 49.5t88 19.5q53 0 91 -33.5t38 -97.5v-219h72v-53h-211zM417 460q-20 0 -34 13.5t-14 31.5q0 19 13.5 32t34.5 13q20 0 33.5 -12t13.5 -33q1 -17 -11.5 -31t-35.5 -14z" />
    <glyph glyph-name="uni1E42" unicode="&#x1e42;" horiz-adv-x="824" 
d="M40 0v53h76v457h-76v53h191l184 -395l175 395h194v-53h-76v-457h76v-53h-227v53h73v443l-212 -467h-26l-215 467v-443h73v-53h-210zM405 -140q-20 0 -34 13.5t-14 31.5q0 19 13.5 32t34.5 13q20 0 33.5 -12t13.5 -33q1 -17 -11.5 -31t-35.5 -14z" />
    <glyph glyph-name="uni1E43" unicode="&#x1e43;" horiz-adv-x="787" 
d="M22 0v53h76v287h-76v53h149v-49l-27 -8q41 30 83.5 48.5t83.5 18.5q61 0 95 -37.5t34 -95.5v-217h72v-53h-211v53h66v205q0 41 -20 64t-55 23q-33 0 -72.5 -16t-77.5 -42l29 29v-263h71v-53h-220zM574 0v53h66v205q0 41 -20 64t-55 23q-34 0 -69.5 -14.5t-67.5 -37.5
l-15 41q42 30 83 49.5t88 19.5q53 0 91 -33.5t38 -97.5v-219h72v-53h-211zM404 -140q-20 0 -34 13.5t-14 31.5q0 19 13.5 32t34.5 13q20 0 33.5 -12t13.5 -33q1 -17 -11.5 -31t-35.5 -14z" />
    <glyph glyph-name="uni1E44" unicode="&#x1e44;" horiz-adv-x="704" 
d="M41 0v53h80v457h-80v53h174l322 -455v402h-80v53h221v-53h-78v-510h-81l-336 479v-426h80v-53h-222zM351 630q-20 0 -34 13.5t-14 31.5q0 19 13.5 32t34.5 13q20 0 33.5 -12t13.5 -33q1 -17 -11.5 -31t-35.5 -14z" />
    <glyph glyph-name="uni1E45" unicode="&#x1e45;" horiz-adv-x="517" 
d="M22 0v53h76v287h-76v53h149v-54l-28 -3q42 29 84 48t86 19q54 0 91.5 -33.5t37.5 -97.5v-219h73v-53h-211v53h65v205q0 41 -20 64t-55 23q-36 0 -73 -16t-79 -44l29 32v-264h71v-53h-220zM282 460q-20 0 -34 13.5t-14 31.5q0 19 13.5 32t34.5 13q20 0 33.5 -12t13.5 -33
q1 -17 -11.5 -31t-35.5 -14z" />
    <glyph glyph-name="uni1E46" unicode="&#x1e46;" horiz-adv-x="704" 
d="M41 0v53h80v457h-80v53h174l322 -455v402h-80v53h221v-53h-78v-510h-81l-336 479v-426h80v-53h-222zM368 -140q-20 0 -34 13.5t-14 31.5q0 19 13.5 32t34.5 13q20 0 33.5 -12t13.5 -33q1 -17 -11.5 -31t-35.5 -14z" />
    <glyph glyph-name="uni1E47" unicode="&#x1e47;" horiz-adv-x="517" 
d="M22 0v53h76v287h-76v53h149v-54l-28 -3q42 29 84 48t86 19q54 0 91.5 -33.5t37.5 -97.5v-219h73v-53h-211v53h65v205q0 41 -20 64t-55 23q-36 0 -73 -16t-79 -44l29 32v-264h71v-53h-220zM279 -140q-20 0 -34 13.5t-14 31.5q0 19 13.5 32t34.5 13q20 0 33.5 -12t13.5 -33
q1 -17 -11.5 -31t-35.5 -14z" />
    <glyph glyph-name="uni1E48" unicode="&#x1e48;" horiz-adv-x="704" 
d="M41 0v53h80v457h-80v53h174l322 -455v402h-80v53h221v-53h-78v-510h-81l-336 479v-426h80v-53h-222zM263 -82v45h210v-45h-210z" />
    <glyph glyph-name="uni1E49" unicode="&#x1e49;" horiz-adv-x="517" 
d="M22 0v53h76v287h-76v53h149v-54l-28 -3q42 29 84 48t86 19q54 0 91.5 -33.5t37.5 -97.5v-219h73v-53h-211v53h65v205q0 41 -20 64t-55 23q-36 0 -73 -16t-79 -44l29 32v-264h71v-53h-220zM174 -82v45h210v-45h-210z" />
    <glyph glyph-name="uni1E4C" unicode="&#x1e4c;" horiz-adv-x="709" 
d="M354 -11q-69 0 -125.5 23t-96.5 63.5t-61.5 93t-21.5 111.5t21.5 112t61.5 93.5t96.5 64t125.5 23.5t125.5 -23.5t96.5 -64t61.5 -93.5t21.5 -112t-21.5 -111.5t-61.5 -93t-96 -63.5t-126 -23zM354 49q51 0 91.5 18t69 50t43 73.5t14.5 89.5t-14.5 90.5t-43 74.5
t-69 50.5t-91.5 18.5q-52 0 -92 -18.5t-68 -51t-42.5 -75t-14.5 -90.5t14.5 -89.5t42.5 -73.5t68 -49.5t92 -17.5zM416 640q-22 0 -46.5 9.5t-47 18.5t-39.5 9q-25 0 -31 -33h-31q4 46 23.5 67t49.5 21q19 0 42.5 -9t46 -18.5t37.5 -9.5t24 8t13 27h29q-3 -37 -19 -63.5
t-51 -26.5zM331 796l53 145h84l-90 -145h-47z" />
    <glyph glyph-name="uni1E4D" unicode="&#x1e4d;" horiz-adv-x="476" 
d="M237 -12q-63 0 -111 26t-74.5 73t-26.5 110t26.5 109.5t74.5 72t111 25.5q64 0 112 -25.5t75 -72t27 -108.5q0 -63 -27 -110t-75 -73.5t-112 -26.5zM237 46q42 0 73 19t48 53t17 80q0 45 -17 78t-48 51.5t-73 18.5q-41 0 -71.5 -18.5t-47.5 -52t-17 -78.5t17 -79
t47.5 -53t71.5 -19zM300 470q-22 0 -46.5 9.5t-47 18.5t-39.5 9q-25 0 -31 -33h-31q4 46 23.5 67t49.5 21q19 0 42.5 -9t46 -18.5t37.5 -9.5t24 8t13 27h29q-3 -37 -19 -63.5t-51 -26.5zM215 626l53 145h84l-90 -145h-47z" />
    <glyph glyph-name="uni1E4E" unicode="&#x1e4e;" horiz-adv-x="709" 
d="M354 -11q-69 0 -125.5 23t-96.5 63.5t-61.5 93t-21.5 111.5t21.5 112t61.5 93.5t96.5 64t125.5 23.5t125.5 -23.5t96.5 -64t61.5 -93.5t21.5 -112t-21.5 -111.5t-61.5 -93t-96 -63.5t-126 -23zM354 49q51 0 91.5 18t69 50t43 73.5t14.5 89.5t-14.5 90.5t-43 74.5
t-69 50.5t-91.5 18.5q-52 0 -92 -18.5t-68 -51t-42.5 -75t-14.5 -90.5t14.5 -89.5t42.5 -73.5t68 -49.5t92 -17.5zM416 640q-22 0 -46.5 9.5t-47 18.5t-39.5 9q-25 0 -31 -33h-31q4 46 23.5 67t49.5 21q19 0 42.5 -9t46 -18.5t37.5 -9.5t24 8t13 27h29q-3 -37 -19 -63.5
t-51 -26.5zM258 776q-20 0 -32.5 12t-12.5 31q0 20 12.5 31.5t32.5 11.5t32.5 -11.5t12.5 -31.5q0 -19 -12.5 -31t-32.5 -12zM450 776q-20 0 -32 12t-12 31q0 20 12 31.5t32 11.5t32.5 -11.5t12.5 -31.5q0 -19 -12.5 -31t-32.5 -12z" />
    <glyph glyph-name="uni1E4F" unicode="&#x1e4f;" horiz-adv-x="476" 
d="M237 -12q-63 0 -111 26t-74.5 73t-26.5 110t26.5 109.5t74.5 72t111 25.5q64 0 112 -25.5t75 -72t27 -108.5q0 -63 -27 -110t-75 -73.5t-112 -26.5zM237 46q42 0 73 19t48 53t17 80q0 45 -17 78t-48 51.5t-73 18.5q-41 0 -71.5 -18.5t-47.5 -52t-17 -78.5t17 -79
t47.5 -53t71.5 -19zM300 470q-22 0 -46.5 9.5t-47 18.5t-39.5 9q-25 0 -31 -33h-31q4 46 23.5 67t49.5 21q19 0 42.5 -9t46 -18.5t37.5 -9.5t24 8t13 27h29q-3 -37 -19 -63.5t-51 -26.5zM142 606q-20 0 -32.5 12t-12.5 31q0 20 12.5 31.5t32.5 11.5t32.5 -11.5t12.5 -31.5
q0 -19 -12.5 -31t-32.5 -12zM334 606q-20 0 -32 12t-12 31q0 20 12 31.5t32 11.5t32.5 -11.5t12.5 -31.5q0 -19 -12.5 -31t-32.5 -12z" />
    <glyph glyph-name="uni1E50" unicode="&#x1e50;" horiz-adv-x="709" 
d="M354 -11q-69 0 -125.5 23t-96.5 63.5t-61.5 93t-21.5 111.5t21.5 112t61.5 93.5t96.5 64t125.5 23.5t125.5 -23.5t96.5 -64t61.5 -93.5t21.5 -112t-21.5 -111.5t-61.5 -93t-96 -63.5t-126 -23zM354 49q51 0 91.5 18t69 50t43 73.5t14.5 89.5t-14.5 90.5t-43 74.5
t-69 50.5t-91.5 18.5q-52 0 -92 -18.5t-68 -51t-42.5 -75t-14.5 -90.5t14.5 -89.5t42.5 -73.5t68 -49.5t92 -17.5zM248 643v45h210v-45h-210zM329 761l-90 145h84l53 -145h-47z" />
    <glyph glyph-name="uni1E51" unicode="&#x1e51;" horiz-adv-x="476" 
d="M237 -12q-63 0 -111 26t-74.5 73t-26.5 110t26.5 109.5t74.5 72t111 25.5q64 0 112 -25.5t75 -72t27 -108.5q0 -63 -27 -110t-75 -73.5t-112 -26.5zM237 46q42 0 73 19t48 53t17 80q0 45 -17 78t-48 51.5t-73 18.5q-41 0 -71.5 -18.5t-47.5 -52t-17 -78.5t17 -79
t47.5 -53t71.5 -19zM132 473v45h210v-45h-210zM213 591l-90 145h84l53 -145h-47z" />
    <glyph glyph-name="uni1E52" unicode="&#x1e52;" horiz-adv-x="709" 
d="M354 -11q-69 0 -125.5 23t-96.5 63.5t-61.5 93t-21.5 111.5t21.5 112t61.5 93.5t96.5 64t125.5 23.5t125.5 -23.5t96.5 -64t61.5 -93.5t21.5 -112t-21.5 -111.5t-61.5 -93t-96 -63.5t-126 -23zM354 49q51 0 91.5 18t69 50t43 73.5t14.5 89.5t-14.5 90.5t-43 74.5
t-69 50.5t-91.5 18.5q-52 0 -92 -18.5t-68 -51t-42.5 -75t-14.5 -90.5t14.5 -89.5t42.5 -73.5t68 -49.5t92 -17.5zM248 643v45h210v-45h-210zM330 761l53 145h84l-90 -145h-47z" />
    <glyph glyph-name="uni1E53" unicode="&#x1e53;" horiz-adv-x="476" 
d="M237 -12q-63 0 -111 26t-74.5 73t-26.5 110t26.5 109.5t74.5 72t111 25.5q64 0 112 -25.5t75 -72t27 -108.5q0 -63 -27 -110t-75 -73.5t-112 -26.5zM237 46q42 0 73 19t48 53t17 80q0 45 -17 78t-48 51.5t-73 18.5q-41 0 -71.5 -18.5t-47.5 -52t-17 -78.5t17 -79
t47.5 -53t71.5 -19zM132 473v45h210v-45h-210zM214 591l53 145h84l-90 -145h-47z" />
    <glyph glyph-name="uni1E56" unicode="&#x1e56;" horiz-adv-x="563" 
d="M39 0v53h78v457h-78v53h278q103 0 157 -41t54 -119q0 -82 -55.5 -126t-160.5 -44h-75v53h72q65 0 100 30t35 86q0 53 -30.5 80.5t-87.5 27.5h-127v-457h78v-53h-238zM291 630q-20 0 -34 13.5t-14 31.5q0 19 13.5 32t34.5 13q20 0 33.5 -12t13.5 -33q1 -17 -11.5 -31
t-35.5 -14z" />
    <glyph glyph-name="uni1E57" unicode="&#x1e57;" horiz-adv-x="512" 
d="M19 -156v53h71v443h-69v53h138l1 -45l-22 -11q30 31 71.5 48.5t84.5 17.5q53 0 96.5 -23t69 -68t25.5 -110q0 -67 -28 -114.5t-74.5 -72.5t-100.5 -25q-30 0 -56.5 8t-46.5 20.5t-30 28.5l15 3l-1 -153h77v-53h-221zM269 45q59 0 99 38.5t40 112.5q0 72 -38 111t-96 39
q-18 0 -43 -6.5t-50 -20.5t-42 -37l24 42l1 -251l-23 31q26 -28 60 -43.5t68 -15.5zM278 460q-20 0 -34 13.5t-14 31.5q0 19 13.5 32t34.5 13q20 0 33.5 -12t13.5 -33q1 -17 -11.5 -31t-35.5 -14z" />
    <glyph glyph-name="uni1E5A" unicode="&#x1e5a;" horiz-adv-x="619" 
d="M39 0v53h78v457h-78v53h296q59 0 102 -16.5t66 -49t23 -81.5q0 -39 -14.5 -70t-46.5 -51.5t-84 -28.5l129 -213h83v-53h-139l-151 258h-69v55h88q49 0 75.5 15.5t37 39t10.5 47.5q0 26 -11.5 47.5t-35.5 34.5t-62 13h-137v-457h78v-53h-238zM324 -140q-20 0 -34 13.5
t-14 31.5q0 19 13.5 32t34.5 13q20 0 33.5 -12t13.5 -33q1 -17 -11.5 -31t-35.5 -14z" />
    <glyph glyph-name="uni1E5B" unicode="&#x1e5b;" horiz-adv-x="386" 
d="M35 0v53h76v287h-76v53h149v-117l-14 2q11 45 28.5 71t40 37.5t46.5 11.5q20 0 40 -5t40 -15l-18 -67q-17 11 -34 16.5t-35 5.5q-38 0 -65.5 -31.5t-27.5 -90.5l-1 -158h70v-53h-219zM148 -140q-20 0 -34 13.5t-14 31.5q0 19 13.5 32t34.5 13q20 0 33.5 -12t13.5 -33
q1 -17 -11.5 -31t-35.5 -14z" />
    <glyph glyph-name="uni1E5E" unicode="&#x1e5e;" horiz-adv-x="619" 
d="M39 0v53h78v457h-78v53h296q59 0 102 -16.5t66 -49t23 -81.5q0 -39 -14.5 -70t-46.5 -51.5t-84 -28.5l129 -213h83v-53h-139l-151 258h-69v55h88q49 0 75.5 15.5t37 39t10.5 47.5q0 26 -11.5 47.5t-35.5 34.5t-62 13h-137v-457h78v-53h-238zM219 -82v45h210v-45h-210z
" />
    <glyph glyph-name="uni1E5F" unicode="&#x1e5f;" horiz-adv-x="386" 
d="M35 0v53h76v287h-76v53h149v-117l-14 2q11 45 28.5 71t40 37.5t46.5 11.5q20 0 40 -5t40 -15l-18 -67q-17 11 -34 16.5t-35 5.5q-38 0 -65.5 -31.5t-27.5 -90.5l-1 -158h70v-53h-219zM43 -82v45h210v-45h-210z" />
    <glyph glyph-name="uni1E60" unicode="&#x1e60;" horiz-adv-x="522" 
d="M300 -10q-40 0 -74.5 12.5t-60.5 35t-42 52.5h13v-90h-65v190h60q4 -41 25 -73t57 -50.5t84 -18.5q52 0 81 24.5t29 70.5q0 37 -13 57.5t-43 32t-80 19.5l-24 4q-81 14 -130 53.5t-49 110.5q0 50 22 84t62 52t93 18q59 0 104 -26t61 -71h-21v86h64v-159h-59q-4 24 -17 50
t-43 44t-85 18q-52 0 -80 -24.5t-28 -63.5q0 -43 31 -66t90 -34l23 -4q66 -11 109 -30t64.5 -52t21.5 -87q0 -44 -21 -81.5t-61 -60.5t-98 -23zM273 630q-20 0 -34 13.5t-14 31.5q0 19 13.5 32t34.5 13q20 0 33.5 -12t13.5 -33q1 -17 -11.5 -31t-35.5 -14z" />
    <glyph glyph-name="uni1E61" unicode="&#x1e61;" horiz-adv-x="432" 
d="M244 -10q-31 0 -59.5 8t-49.5 22t-32 33l15 -9v-44h-58v136h52l6 -65l-14 47q11 -37 49.5 -57t80.5 -20q38 0 63.5 15t25.5 42q0 32 -21.5 44.5t-68.5 22.5l-55 12q-55 14 -87 37.5t-32 78.5q0 53 41.5 81.5t103.5 28.5q24 0 50.5 -6.5t48.5 -19.5t31 -32l-15 5v45h59
v-135h-52l-13 95l17 -66q-4 18 -22.5 31.5t-43 21.5t-48.5 8q-32 0 -57.5 -13t-25.5 -42q0 -22 17.5 -34t57.5 -22l51 -11q38 -9 68.5 -21.5t48.5 -36t18 -66.5q0 -39 -21.5 -64.5t-56 -37.5t-72.5 -12zM230 460q-20 0 -34 13.5t-14 31.5q0 19 13.5 32t34.5 13
q20 0 33.5 -12t13.5 -33q1 -17 -11.5 -31t-35.5 -14z" />
    <glyph glyph-name="uni1E62" unicode="&#x1e62;" horiz-adv-x="522" 
d="M300 -10q-40 0 -74.5 12.5t-60.5 35t-42 52.5h13v-90h-65v190h60q4 -41 25 -73t57 -50.5t84 -18.5q52 0 81 24.5t29 70.5q0 37 -13 57.5t-43 32t-80 19.5l-24 4q-81 14 -130 53.5t-49 110.5q0 50 22 84t62 52t93 18q59 0 104 -26t61 -71h-21v86h64v-159h-59q-4 24 -17 50
t-43 44t-85 18q-52 0 -80 -24.5t-28 -63.5q0 -43 31 -66t90 -34l23 -4q66 -11 109 -30t64.5 -52t21.5 -87q0 -44 -21 -81.5t-61 -60.5t-98 -23zM295 -140q-20 0 -34 13.5t-14 31.5q0 19 13.5 32t34.5 13q20 0 33.5 -12t13.5 -33q1 -17 -11.5 -31t-35.5 -14z" />
    <glyph glyph-name="uni1E63" unicode="&#x1e63;" horiz-adv-x="432" 
d="M244 -10q-31 0 -59.5 8t-49.5 22t-32 33l15 -9v-44h-58v136h52l6 -65l-14 47q11 -37 49.5 -57t80.5 -20q38 0 63.5 15t25.5 42q0 32 -21.5 44.5t-68.5 22.5l-55 12q-55 14 -87 37.5t-32 78.5q0 53 41.5 81.5t103.5 28.5q24 0 50.5 -6.5t48.5 -19.5t31 -32l-15 5v45h59
v-135h-52l-13 95l17 -66q-4 18 -22.5 31.5t-43 21.5t-48.5 8q-32 0 -57.5 -13t-25.5 -42q0 -22 17.5 -34t57.5 -22l51 -11q38 -9 68.5 -21.5t48.5 -36t18 -66.5q0 -39 -21.5 -64.5t-56 -37.5t-72.5 -12zM231 -140q-20 0 -34 13.5t-14 31.5q0 19 13.5 32t34.5 13
q20 0 33.5 -12t13.5 -33q1 -17 -11.5 -31t-35.5 -14z" />
    <glyph glyph-name="uni1E64" unicode="&#x1e64;" horiz-adv-x="522" 
d="M300 -10q-40 0 -74.5 12.5t-60.5 35t-42 52.5h13v-90h-65v190h60q4 -41 25 -73t57 -50.5t84 -18.5q52 0 81 24.5t29 70.5q0 37 -13 57.5t-43 32t-80 19.5l-24 4q-81 14 -130 53.5t-49 110.5q0 50 22 84t62 52t93 18q59 0 104 -26t61 -71h-21v86h64v-159h-59q-4 24 -17 50
t-43 44t-85 18q-52 0 -80 -24.5t-28 -63.5q0 -43 31 -66t90 -34l23 -4q66 -11 109 -30t64.5 -52t21.5 -87q0 -44 -21 -81.5t-61 -60.5t-98 -23zM250 647l53 145h84l-90 -145h-47zM273 863q-20 0 -34 13.5t-14 31.5q0 19 13.5 32t34.5 13q20 0 33.5 -12t13.5 -33
q1 -17 -11.5 -31t-35.5 -14z" />
    <glyph glyph-name="uni1E65" unicode="&#x1e65;" horiz-adv-x="432" 
d="M244 -10q-31 0 -59.5 8t-49.5 22t-32 33l15 -9v-44h-58v136h52l6 -65l-14 47q11 -37 49.5 -57t80.5 -20q38 0 63.5 15t25.5 42q0 32 -21.5 44.5t-68.5 22.5l-55 12q-55 14 -87 37.5t-32 78.5q0 53 41.5 81.5t103.5 28.5q24 0 50.5 -6.5t48.5 -19.5t31 -32l-15 5v45h59
v-135h-52l-13 95l17 -66q-4 18 -22.5 31.5t-43 21.5t-48.5 8q-32 0 -57.5 -13t-25.5 -42q0 -22 17.5 -34t57.5 -22l51 -11q38 -9 68.5 -21.5t48.5 -36t18 -66.5q0 -39 -21.5 -64.5t-56 -37.5t-72.5 -12zM207 477l53 145h84l-90 -145h-47zM230 693q-20 0 -34 13.5t-14 31.5
q0 19 13.5 32t34.5 13q20 0 33.5 -12t13.5 -33q1 -17 -11.5 -31t-35.5 -14z" />
    <glyph glyph-name="uni1E66" unicode="&#x1e66;" horiz-adv-x="522" 
d="M300 -10q-40 0 -74.5 12.5t-60.5 35t-42 52.5h13v-90h-65v190h60q4 -41 25 -73t57 -50.5t84 -18.5q52 0 81 24.5t29 70.5q0 37 -13 57.5t-43 32t-80 19.5l-24 4q-81 14 -130 53.5t-49 110.5q0 50 22 84t62 52t93 18q59 0 104 -26t61 -71h-21v86h64v-159h-59q-4 24 -17 50
t-43 44t-85 18q-52 0 -80 -24.5t-28 -63.5q0 -43 31 -66t90 -34l23 -4q66 -11 109 -30t64.5 -52t21.5 -87q0 -44 -21 -81.5t-61 -60.5t-98 -23zM238 618l-81 151h53l64 -109l62 109h52l-79 -151h-71zM273 836q-20 0 -34 13.5t-14 31.5q0 19 13.5 32t34.5 13q20 0 33.5 -12
t13.5 -33q1 -17 -11.5 -31t-35.5 -14z" />
    <glyph glyph-name="uni1E67" unicode="&#x1e67;" horiz-adv-x="432" 
d="M244 -10q-31 0 -59.5 8t-49.5 22t-32 33l15 -9v-44h-58v136h52l6 -65l-14 47q11 -37 49.5 -57t80.5 -20q38 0 63.5 15t25.5 42q0 32 -21.5 44.5t-68.5 22.5l-55 12q-55 14 -87 37.5t-32 78.5q0 53 41.5 81.5t103.5 28.5q24 0 50.5 -6.5t48.5 -19.5t31 -32l-15 5v45h59
v-135h-52l-13 95l17 -66q-4 18 -22.5 31.5t-43 21.5t-48.5 8q-32 0 -57.5 -13t-25.5 -42q0 -22 17.5 -34t57.5 -22l51 -11q38 -9 68.5 -21.5t48.5 -36t18 -66.5q0 -39 -21.5 -64.5t-56 -37.5t-72.5 -12zM195 448l-81 151h53l64 -109l62 109h52l-79 -151h-71zM230 666
q-20 0 -34 13.5t-14 31.5q0 19 13.5 32t34.5 13q20 0 33.5 -12t13.5 -33q1 -17 -11.5 -31t-35.5 -14z" />
    <glyph glyph-name="uni1E68" unicode="&#x1e68;" horiz-adv-x="522" 
d="M300 -10q-40 0 -74.5 12.5t-60.5 35t-42 52.5h13v-90h-65v190h60q4 -41 25 -73t57 -50.5t84 -18.5q52 0 81 24.5t29 70.5q0 37 -13 57.5t-43 32t-80 19.5l-24 4q-81 14 -130 53.5t-49 110.5q0 50 22 84t62 52t93 18q59 0 104 -26t61 -71h-21v86h64v-159h-59q-4 24 -17 50
t-43 44t-85 18q-52 0 -80 -24.5t-28 -63.5q0 -43 31 -66t90 -34l23 -4q66 -11 109 -30t64.5 -52t21.5 -87q0 -44 -21 -81.5t-61 -60.5t-98 -23zM295 -140q-20 0 -34 13.5t-14 31.5q0 19 13.5 32t34.5 13q20 0 33.5 -12t13.5 -33q1 -17 -11.5 -31t-35.5 -14zM273 630
q-20 0 -34 13.5t-14 31.5q0 19 13.5 32t34.5 13q20 0 33.5 -12t13.5 -33q1 -17 -11.5 -31t-35.5 -14z" />
    <glyph glyph-name="uni1E69" unicode="&#x1e69;" horiz-adv-x="432" 
d="M244 -10q-31 0 -59.5 8t-49.5 22t-32 33l15 -9v-44h-58v136h52l6 -65l-14 47q11 -37 49.5 -57t80.5 -20q38 0 63.5 15t25.5 42q0 32 -21.5 44.5t-68.5 22.5l-55 12q-55 14 -87 37.5t-32 78.5q0 53 41.5 81.5t103.5 28.5q24 0 50.5 -6.5t48.5 -19.5t31 -32l-15 5v45h59
v-135h-52l-13 95l17 -66q-4 18 -22.5 31.5t-43 21.5t-48.5 8q-32 0 -57.5 -13t-25.5 -42q0 -22 17.5 -34t57.5 -22l51 -11q38 -9 68.5 -21.5t48.5 -36t18 -66.5q0 -39 -21.5 -64.5t-56 -37.5t-72.5 -12zM231 -140q-20 0 -34 13.5t-14 31.5q0 19 13.5 32t34.5 13
q20 0 33.5 -12t13.5 -33q1 -17 -11.5 -31t-35.5 -14zM230 460q-20 0 -34 13.5t-14 31.5q0 19 13.5 32t34.5 13q20 0 33.5 -12t13.5 -33q1 -17 -11.5 -31t-35.5 -14z" />
    <glyph glyph-name="uni1E6A" unicode="&#x1e6a;" horiz-adv-x="559" 
d="M162 0v53h78v457h-154v-143h-61v196h508v-196h-61v143h-151v-457h78v-53h-237zM278 630q-20 0 -34 13.5t-14 31.5q0 19 13.5 32t34.5 13q20 0 33.5 -12t13.5 -33q1 -17 -11.5 -31t-35.5 -14z" />
    <glyph glyph-name="uni1E6B" unicode="&#x1e6b;" horiz-adv-x="301" 
d="M199 0q-56 0 -85 28.5t-29 87.5v224h-65v53h65v134l74 29v-163h104v-53h-104v-220q0 -37 12 -52t41 -15h60v-53h-73zM125 588q-20 0 -34 13.5t-14 31.5q0 19 13.5 32t34.5 13q20 0 33.5 -12t13.5 -33q1 -17 -11.5 -31t-35.5 -14z" />
    <glyph glyph-name="uni1E6C" unicode="&#x1e6c;" horiz-adv-x="559" 
d="M162 0v53h78v457h-154v-143h-61v196h508v-196h-61v143h-151v-457h78v-53h-237zM281 -140q-20 0 -34 13.5t-14 31.5q0 19 13.5 32t34.5 13q20 0 33.5 -12t13.5 -33q1 -17 -11.5 -31t-35.5 -14z" />
    <glyph glyph-name="uni1E6D" unicode="&#x1e6d;" horiz-adv-x="301" 
d="M199 0q-56 0 -85 28.5t-29 87.5v224h-65v53h65v134l74 29v-163h104v-53h-104v-220q0 -37 12 -52t41 -15h60v-53h-73zM191 -139q-20 0 -34 13.5t-14 31.5q0 19 13.5 32t34.5 13q20 0 33.5 -12t13.5 -33q1 -17 -11.5 -31t-35.5 -14z" />
    <glyph glyph-name="uni1E6E" unicode="&#x1e6e;" horiz-adv-x="559" 
d="M162 0v53h78v457h-154v-143h-61v196h508v-196h-61v143h-151v-457h78v-53h-237zM176 -82v45h210v-45h-210z" />
    <glyph glyph-name="uni1E6F" unicode="&#x1e6f;" horiz-adv-x="301" 
d="M199 0q-56 0 -85 28.5t-29 87.5v224h-65v53h65v134l74 29v-163h104v-53h-104v-220q0 -37 12 -52t41 -15h60v-53h-73zM86 -81v45h210v-45h-210z" />
    <glyph glyph-name="uni1E78" unicode="&#x1e78;" horiz-adv-x="670" 
d="M337 -10q-84 0 -135.5 28t-75.5 76.5t-24 109.5v306h-75v53h231v-53h-75v-317q0 -44 18.5 -76.5t53.5 -49.5t84 -17q53 0 90 17t56.5 49.5t19.5 77.5v316h-74v53h219v-53h-76v-313q0 -70 -30.5 -115.5t-83.5 -68.5t-123 -23zM407 640q-22 0 -46.5 9.5t-47 18.5t-39.5 9
q-25 0 -31 -33h-31q4 46 23.5 67t49.5 21q19 0 42.5 -9t46 -18.5t37.5 -9.5t24 8t13 27h29q-3 -37 -19 -63.5t-51 -26.5zM322 796l53 145h84l-90 -145h-47z" />
    <glyph glyph-name="uni1E79" unicode="&#x1e79;" horiz-adv-x="510" 
d="M208 -10q-46 0 -75 18t-42.5 48t-13.5 66v218h-66v53h140v-263q0 -37 18 -59t56 -22q44 0 81 21t70 58l-23 -39v251h-71v53h144v-340h73v-53h-144l-3 65l26 5q-39 -37 -81.5 -58.5t-88.5 -21.5zM302 470q-22 0 -46.5 9.5t-47 18.5t-39.5 9q-25 0 -31 -33h-31
q4 46 23.5 67t49.5 21q19 0 42.5 -9t46 -18.5t37.5 -9.5t24 8t13 27h29q-3 -37 -19 -63.5t-51 -26.5zM217 626l53 145h84l-90 -145h-47z" />
    <glyph glyph-name="uni1E7A" unicode="&#x1e7a;" horiz-adv-x="670" 
d="M337 -10q-84 0 -135.5 28t-75.5 76.5t-24 109.5v306h-75v53h231v-53h-75v-317q0 -44 18.5 -76.5t53.5 -49.5t84 -17q53 0 90 17t56.5 49.5t19.5 77.5v316h-74v53h219v-53h-76v-313q0 -70 -30.5 -115.5t-83.5 -68.5t-123 -23zM239 643v45h210v-45h-210zM248 741
q-20 0 -32.5 12t-12.5 31q0 20 12.5 31.5t32.5 11.5t32.5 -11.5t12.5 -31.5q0 -19 -12.5 -31t-32.5 -12zM440 741q-20 0 -32 12t-12 31q0 20 12 31.5t32 11.5t32.5 -11.5t12.5 -31.5q0 -19 -12.5 -31t-32.5 -12z" />
    <glyph glyph-name="uni1E7B" unicode="&#x1e7b;" horiz-adv-x="510" 
d="M208 -10q-46 0 -75 18t-42.5 48t-13.5 66v218h-66v53h140v-263q0 -37 18 -59t56 -22q44 0 81 21t70 58l-23 -39v251h-71v53h144v-340h73v-53h-144l-3 65l26 5q-39 -37 -81.5 -58.5t-88.5 -21.5zM134 473v45h210v-45h-210zM143 571q-20 0 -32.5 12t-12.5 31
q0 20 12.5 31.5t32.5 11.5t32.5 -11.5t12.5 -31.5q0 -19 -12.5 -31t-32.5 -12zM335 571q-20 0 -32 12t-12 31q0 20 12 31.5t32 11.5t32.5 -11.5t12.5 -31.5q0 -19 -12.5 -31t-32.5 -12z" />
    <glyph glyph-name="Wgrave" unicode="&#x1e80;" horiz-adv-x="922" 
d="M253 0l-160 510h-69v53h220v-53h-73l122 -406l145 449h59l146 -449l119 406h-73v53h210v-53h-70l-155 -510h-70l-141 426l-140 -426h-70zM444 637l-90 145h84l53 -145h-47z" />
    <glyph glyph-name="wgrave" unicode="&#x1e81;" horiz-adv-x="715" 
d="M185 0l-124 340h-52v53h178v-53h-54l93 -267l93 267h-56v53h193v-53h-57l97 -268l86 268h-55v53h177v-53h-55l-118 -340h-72l-101 279l-101 -279h-72zM336 477l-90 145h84l53 -145h-47z" />
    <glyph glyph-name="Wacute" unicode="&#x1e82;" horiz-adv-x="922" 
d="M253 0l-160 510h-69v53h220v-53h-73l122 -406l145 449h59l146 -449l119 406h-73v53h210v-53h-70l-155 -510h-70l-141 426l-140 -426h-70zM445 637l53 145h84l-90 -145h-47z" />
    <glyph glyph-name="wacute" unicode="&#x1e83;" horiz-adv-x="715" 
d="M185 0l-124 340h-52v53h178v-53h-54l93 -267l93 267h-56v53h193v-53h-57l97 -268l86 268h-55v53h177v-53h-55l-118 -340h-72l-101 279l-101 -279h-72zM337 477l53 145h84l-90 -145h-47z" />
    <glyph glyph-name="Wdieresis" unicode="&#x1e84;" horiz-adv-x="922" 
d="M253 0l-160 510h-69v53h220v-53h-73l122 -406l145 449h59l146 -449l119 406h-73v53h210v-53h-70l-155 -510h-70l-141 426l-140 -426h-70zM372 617q-20 0 -32.5 12t-12.5 31q0 20 12.5 31.5t32.5 11.5t32.5 -11.5t12.5 -31.5q0 -19 -12.5 -31t-32.5 -12zM564 617
q-20 0 -32 12t-12 31q0 20 12 31.5t32 11.5t32.5 -11.5t12.5 -31.5q0 -19 -12.5 -31t-32.5 -12z" />
    <glyph glyph-name="wdieresis" unicode="&#x1e85;" horiz-adv-x="715" 
d="M185 0l-124 340h-52v53h178v-53h-54l93 -267l93 267h-56v53h193v-53h-57l97 -268l86 268h-55v53h177v-53h-55l-118 -340h-72l-101 279l-101 -279h-72zM264 457q-20 0 -32.5 12t-12.5 31q0 20 12.5 31.5t32.5 11.5t32.5 -11.5t12.5 -31.5q0 -19 -12.5 -31t-32.5 -12z
M456 457q-20 0 -32 12t-12 31q0 20 12 31.5t32 11.5t32.5 -11.5t12.5 -31.5q0 -19 -12.5 -31t-32.5 -12z" />
    <glyph glyph-name="uni1E8E" unicode="&#x1e8e;" horiz-adv-x="632" 
d="M195 0v53h82v188l-188 269h-75v53h234v-53h-71l148 -216l143 216h-72v53h222v-53h-77l-183 -268v-189h83v-53h-246zM322 630q-20 0 -34 13.5t-14 31.5q0 19 13.5 32t34.5 13q20 0 33.5 -12t13.5 -33q1 -17 -11.5 -31t-35.5 -14z" />
    <glyph glyph-name="uni1E8F" unicode="&#x1e8f;" horiz-adv-x="519" 
d="M101 -159v60h45q26 0 42 4t27.5 18t21.5 44l21 58h-31l-146 315h-73v53h206v-53h-58l118 -267l105 267h-68v53h205v-53h-64l-146 -363q-18 -46 -33.5 -76t-42.5 -45t-78 -15h-51zM263 460q-20 0 -34 13.5t-14 31.5q0 19 13.5 32t34.5 13q20 0 33.5 -12t13.5 -33
q1 -17 -11.5 -31t-35.5 -14z" />
    <glyph glyph-name="uni1E92" unicode="&#x1e92;" horiz-adv-x="576" 
d="M62 0v57l355 453h-280v-133h-60v186h439v-51l-358 -459h305v142h60v-195h-461zM293 -140q-20 0 -34 13.5t-14 31.5q0 19 13.5 32t34.5 13q20 0 33.5 -12t13.5 -33q1 -17 -11.5 -31t-35.5 -14z" />
    <glyph glyph-name="uni1E93" unicode="&#x1e93;" horiz-adv-x="438" 
d="M51 0v52l253 290h-192v-81h-56v132h334v-55l-253 -288h201v90h58v-140h-345zM224 -140q-20 0 -34 13.5t-14 31.5q0 19 13.5 32t34.5 13q20 0 33.5 -12t13.5 -33q1 -17 -11.5 -31t-35.5 -14z" />
    <glyph glyph-name="uni1E97" unicode="&#x1e97;" horiz-adv-x="301" 
d="M199 0q-56 0 -85 28.5t-29 87.5v224h-65v53h65v134l74 29v-163h104v-53h-104v-220q0 -37 12 -52t41 -15h60v-53h-73zM29 585q-20 0 -32.5 12t-12.5 31q0 20 12.5 31.5t32.5 11.5t32.5 -11.5t12.5 -31.5q0 -19 -12.5 -31t-32.5 -12zM221 585q-20 0 -32 12t-12 31
q0 20 12 31.5t32 11.5t32.5 -11.5t12.5 -31.5q0 -19 -12.5 -31t-32.5 -12z" />
    <glyph glyph-name="uni1E9E" unicode="&#x1e9e;" horiz-adv-x="600" 
d="M326 -10v60q74 0 110 27t36 81q0 56 -40 82.5t-116 26.5v56l123 170q-25 10 -54.5 15t-67.5 5q-69 0 -109 -34t-40 -106v-320h56v-53h-188v53h50v318q0 95 59 148.5t171 53.5q60 0 103.5 -12.5t79.5 -30.5v-56l-111 -153q83 -9 127.5 -49.5t44.5 -110.5q0 -56 -27 -94
t-79 -57.5t-128 -19.5z" />
    <glyph glyph-name="uni1EA0" unicode="&#x1ea0;" horiz-adv-x="675" 
d="M28 0v53h72l163 457h-63v53h275v-53h-65l168 -457h68v-53h-229v53h75l-57 164h-204l-56 -164h75v-53h-222zM247 270h172l-82 239h-6zM334 -140q-20 0 -34 13.5t-14 31.5q0 19 13.5 32t34.5 13q20 0 33.5 -12t13.5 -33q1 -17 -11.5 -31t-35.5 -14z" />
    <glyph glyph-name="uni1EA1" unicode="&#x1ea1;" horiz-adv-x="456" 
d="M174 -11q-61 0 -98 34t-37 83q0 45 21.5 72t57.5 39t79 12q34 0 69.5 -5.5t69.5 -14.5l-30 -5v53q0 47 -25 69t-68 22q-28 0 -65.5 -9.5t-69.5 -26.5l-22 48q35 22 79 32.5t79 10.5q52 0 89 -17t56.5 -48.5t19.5 -73.5v-211h62v-53h-127l-6 56h28q-39 -34 -76 -50.5
t-86 -16.5zM185 40q37 0 74 16t77 49l-30 -36v116l23 -18q-26 8 -59 13t-68 5t-64 -15.5t-29 -59.5q0 -30 20 -50t56 -20zM242 -140q-20 0 -34 13.5t-14 31.5q0 19 13.5 32t34.5 13q20 0 33.5 -12t13.5 -33q1 -17 -11.5 -31t-35.5 -14z" />
    <glyph glyph-name="uni1EA2" unicode="&#x1ea2;" horiz-adv-x="675" 
d="M28 0v53h72l163 457h-63v53h275v-53h-65l168 -457h68v-53h-229v53h75l-57 164h-204l-56 -164h75v-53h-222zM247 270h172l-82 239h-6zM338 606l-14 44q17 5 25.5 14t8.5 22t-9.5 20t-24.5 7q-11 0 -21.5 -3.5t-21.5 -9.5l-15 42q12 7 28 12t35 5q37 0 59.5 -20t22.5 -51
t-19 -51.5t-54 -30.5z" />
    <glyph glyph-name="uni1EA3" unicode="&#x1ea3;" horiz-adv-x="456" 
d="M174 -11q-61 0 -98 34t-37 83q0 45 21.5 72t57.5 39t79 12q34 0 69.5 -5.5t69.5 -14.5l-30 -5v53q0 47 -25 69t-68 22q-28 0 -65.5 -9.5t-69.5 -26.5l-22 48q35 22 79 32.5t79 10.5q52 0 89 -17t56.5 -48.5t19.5 -73.5v-211h62v-53h-127l-6 56h28q-39 -34 -76 -50.5
t-86 -16.5zM185 40q37 0 74 16t77 49l-30 -36v116l23 -18q-26 8 -59 13t-68 5t-64 -15.5t-29 -59.5q0 -30 20 -50t56 -20zM217 436l-14 44q17 5 25.5 14t8.5 22t-9.5 20t-24.5 7q-11 0 -21.5 -3.5t-21.5 -9.5l-15 42q12 7 28 12t35 5q37 0 59.5 -20t22.5 -51t-19 -51.5
t-54 -30.5z" />
    <glyph glyph-name="uni1EA4" unicode="&#x1ea4;" horiz-adv-x="675" 
d="M28 0v53h72l163 457h-63v53h275v-53h-65l168 -457h68v-53h-229v53h75l-57 164h-204l-56 -164h75v-53h-222zM247 270h172l-82 239h-6zM216 619l83 127h78l83 -127h-56l-66 95l-66 -95h-56zM432 710l43 115h74l-70 -115h-47z" />
    <glyph glyph-name="uni1EA5" unicode="&#x1ea5;" horiz-adv-x="456" 
d="M174 -11q-61 0 -98 34t-37 83q0 45 21.5 72t57.5 39t79 12q34 0 69.5 -5.5t69.5 -14.5l-30 -5v53q0 47 -25 69t-68 22q-28 0 -65.5 -9.5t-69.5 -26.5l-22 48q35 22 79 32.5t79 10.5q52 0 89 -17t56.5 -48.5t19.5 -73.5v-211h62v-53h-127l-6 56h28q-39 -34 -76 -50.5
t-86 -16.5zM185 40q37 0 74 16t77 49l-30 -36v116l23 -18q-26 8 -59 13t-68 5t-64 -15.5t-29 -59.5q0 -30 20 -50t56 -20zM95 449l83 127h78l83 -127h-56l-66 95l-66 -95h-56zM311 540l43 115h74l-70 -115h-47z" />
    <glyph glyph-name="uni1EA6" unicode="&#x1ea6;" horiz-adv-x="675" 
d="M28 0v53h72l163 457h-63v53h275v-53h-65l168 -457h68v-53h-229v53h75l-57 164h-204l-56 -164h75v-53h-222zM247 270h172l-82 239h-6zM216 619l83 127h78l83 -127h-56l-66 95l-66 -95h-56zM499 710h-47l-70 115h74z" />
    <glyph glyph-name="uni1EA7" unicode="&#x1ea7;" horiz-adv-x="456" 
d="M174 -11q-61 0 -98 34t-37 83q0 45 21.5 72t57.5 39t79 12q34 0 69.5 -5.5t69.5 -14.5l-30 -5v53q0 47 -25 69t-68 22q-28 0 -65.5 -9.5t-69.5 -26.5l-22 48q35 22 79 32.5t79 10.5q52 0 89 -17t56.5 -48.5t19.5 -73.5v-211h62v-53h-127l-6 56h28q-39 -34 -76 -50.5
t-86 -16.5zM185 40q37 0 74 16t77 49l-30 -36v116l23 -18q-26 8 -59 13t-68 5t-64 -15.5t-29 -59.5q0 -30 20 -50t56 -20zM95 449l83 127h78l83 -127h-56l-66 95l-66 -95h-56zM378 540h-47l-70 115h74z" />
    <glyph glyph-name="uni1EA8" unicode="&#x1ea8;" horiz-adv-x="675" 
d="M28 0v53h72l163 457h-63v53h275v-53h-65l168 -457h68v-53h-229v53h75l-57 164h-204l-56 -164h75v-53h-222zM247 270h172l-82 239h-6zM216 619l83 127h78l83 -127h-56l-66 95l-66 -95h-56zM436 700l-14 44q17 5 25.5 14t8.5 22t-9.5 20t-24.5 7q-11 0 -21.5 -3.5
t-21.5 -9.5l-15 42q12 7 28 12t35 5q37 0 59.5 -20t22.5 -51t-19 -51.5t-54 -30.5z" />
    <glyph glyph-name="uni1EA9" unicode="&#x1ea9;" horiz-adv-x="456" 
d="M174 -11q-61 0 -98 34t-37 83q0 45 21.5 72t57.5 39t79 12q34 0 69.5 -5.5t69.5 -14.5l-30 -5v53q0 47 -25 69t-68 22q-28 0 -65.5 -9.5t-69.5 -26.5l-22 48q35 22 79 32.5t79 10.5q52 0 89 -17t56.5 -48.5t19.5 -73.5v-211h62v-53h-127l-6 56h28q-39 -34 -76 -50.5
t-86 -16.5zM185 40q37 0 74 16t77 49l-30 -36v116l23 -18q-26 8 -59 13t-68 5t-64 -15.5t-29 -59.5q0 -30 20 -50t56 -20zM95 449l83 127h78l83 -127h-56l-66 95l-66 -95h-56zM315 530l-14 44q17 5 25.5 14t8.5 22t-9.5 20t-24.5 7q-11 0 -21.5 -3.5t-21.5 -9.5l-15 42
q12 7 28 12t35 5q37 0 59.5 -20t22.5 -51t-19 -51.5t-54 -30.5z" />
    <glyph glyph-name="uni1EAA" unicode="&#x1eaa;" horiz-adv-x="675" 
d="M28 0v53h72l163 457h-63v53h275v-53h-65l168 -457h68v-53h-229v53h75l-57 164h-204l-56 -164h75v-53h-222zM247 270h172l-82 239h-6zM216 619l83 127h78l83 -127h-56l-66 95l-66 -95h-56zM401 772q-22 0 -46.5 9.5t-47 18.5t-39.5 9q-25 0 -31 -33h-31q4 46 23.5 67
t49.5 21q19 0 42.5 -9t46 -18.5t37.5 -9.5t24 8t13 27h29q-3 -37 -19 -63.5t-51 -26.5z" />
    <glyph glyph-name="uni1EAB" unicode="&#x1eab;" horiz-adv-x="456" 
d="M174 -11q-61 0 -98 34t-37 83q0 45 21.5 72t57.5 39t79 12q34 0 69.5 -5.5t69.5 -14.5l-30 -5v53q0 47 -25 69t-68 22q-28 0 -65.5 -9.5t-69.5 -26.5l-22 48q35 22 79 32.5t79 10.5q52 0 89 -17t56.5 -48.5t19.5 -73.5v-211h62v-53h-127l-6 56h28q-39 -34 -76 -50.5
t-86 -16.5zM185 40q37 0 74 16t77 49l-30 -36v116l23 -18q-26 8 -59 13t-68 5t-64 -15.5t-29 -59.5q0 -30 20 -50t56 -20zM95 449l83 127h78l83 -127h-56l-66 95l-66 -95h-56zM280 602q-22 0 -46.5 9.5t-47 18.5t-39.5 9q-25 0 -31 -33h-31q4 46 23.5 67t49.5 21
q19 0 42.5 -9t46 -18.5t37.5 -9.5t24 8t13 27h29q-3 -37 -19 -63.5t-51 -26.5z" />
    <glyph glyph-name="uni1EAC" unicode="&#x1eac;" horiz-adv-x="675" 
d="M28 0v53h72l163 457h-63v53h275v-53h-65l168 -457h68v-53h-229v53h75l-57 164h-204l-56 -164h75v-53h-222zM247 270h172l-82 239h-6zM216 619l83 157h78l83 -157h-56l-66 125l-66 -125h-56zM334 -140q-20 0 -34 13.5t-14 31.5q0 19 13.5 32t34.5 13q20 0 33.5 -12
t13.5 -33q1 -17 -11.5 -31t-35.5 -14z" />
    <glyph glyph-name="uni1EAD" unicode="&#x1ead;" horiz-adv-x="456" 
d="M174 -11q-61 0 -98 34t-37 83q0 45 21.5 72t57.5 39t79 12q34 0 69.5 -5.5t69.5 -14.5l-30 -5v53q0 47 -25 69t-68 22q-28 0 -65.5 -9.5t-69.5 -26.5l-22 48q35 22 79 32.5t79 10.5q52 0 89 -17t56.5 -48.5t19.5 -73.5v-211h62v-53h-127l-6 56h28q-39 -34 -76 -50.5
t-86 -16.5zM185 40q37 0 74 16t77 49l-30 -36v116l23 -18q-26 8 -59 13t-68 5t-64 -15.5t-29 -59.5q0 -30 20 -50t56 -20zM242 -140q-20 0 -34 13.5t-14 31.5q0 19 13.5 32t34.5 13q20 0 33.5 -12t13.5 -33q1 -17 -11.5 -31t-35.5 -14zM95 449l83 157h78l83 -157h-56
l-66 125l-66 -125h-56z" />
    <glyph glyph-name="uni1EAE" unicode="&#x1eae;" horiz-adv-x="675" 
d="M28 0v53h72l163 457h-63v53h275v-53h-65l168 -457h68v-53h-229v53h75l-57 164h-204l-56 -164h75v-53h-222zM247 270h172l-82 239h-6zM338 620q-45 -1 -75 26.5t-35 73.5h49q5 -26 20.5 -40.5t40.5 -14.5q23 0 39.5 14.5t20.5 40.5h50q-5 -46 -34.5 -72.5t-75.5 -27.5z
M309 734l39 105h84l-76 -105h-47z" />
    <glyph glyph-name="uni1EAF" unicode="&#x1eaf;" horiz-adv-x="456" 
d="M174 -11q-61 0 -98 34t-37 83q0 45 21.5 72t57.5 39t79 12q34 0 69.5 -5.5t69.5 -14.5l-30 -5v53q0 47 -25 69t-68 22q-28 0 -65.5 -9.5t-69.5 -26.5l-22 48q35 22 79 32.5t79 10.5q52 0 89 -17t56.5 -48.5t19.5 -73.5v-211h62v-53h-127l-6 56h28q-39 -34 -76 -50.5
t-86 -16.5zM185 40q37 0 74 16t77 49l-30 -36v116l23 -18q-26 8 -59 13t-68 5t-64 -15.5t-29 -59.5q0 -30 20 -50t56 -20zM217 450q-45 -1 -75 26.5t-35 73.5h49q5 -26 20.5 -40.5t40.5 -14.5q23 0 39.5 14.5t20.5 40.5h50q-5 -46 -34.5 -72.5t-75.5 -27.5zM188 564l39 105
h84l-76 -105h-47z" />
    <glyph glyph-name="uni1EB0" unicode="&#x1eb0;" horiz-adv-x="675" 
d="M28 0v53h72l163 457h-63v53h275v-53h-65l168 -457h68v-53h-229v53h75l-57 164h-204l-56 -164h75v-53h-222zM247 270h172l-82 239h-6zM338 620q-45 -1 -75 26.5t-35 73.5h49q5 -26 20.5 -40.5t40.5 -14.5q23 0 39.5 14.5t20.5 40.5h50q-5 -46 -34.5 -72.5t-75.5 -27.5z
M319 734l-76 105h84l39 -105h-47z" />
    <glyph glyph-name="uni1EB1" unicode="&#x1eb1;" horiz-adv-x="456" 
d="M174 -11q-61 0 -98 34t-37 83q0 45 21.5 72t57.5 39t79 12q34 0 69.5 -5.5t69.5 -14.5l-30 -5v53q0 47 -25 69t-68 22q-28 0 -65.5 -9.5t-69.5 -26.5l-22 48q35 22 79 32.5t79 10.5q52 0 89 -17t56.5 -48.5t19.5 -73.5v-211h62v-53h-127l-6 56h28q-39 -34 -76 -50.5
t-86 -16.5zM185 40q37 0 74 16t77 49l-30 -36v116l23 -18q-26 8 -59 13t-68 5t-64 -15.5t-29 -59.5q0 -30 20 -50t56 -20zM217 450q-45 -1 -75 26.5t-35 73.5h49q5 -26 20.5 -40.5t40.5 -14.5q23 0 39.5 14.5t20.5 40.5h50q-5 -46 -34.5 -72.5t-75.5 -27.5zM198 564l-76 105
h84l39 -105h-47z" />
    <glyph glyph-name="uni1EB2" unicode="&#x1eb2;" horiz-adv-x="675" 
d="M28 0v53h72l163 457h-63v53h275v-53h-65l168 -457h68v-53h-229v53h75l-57 164h-204l-56 -164h75v-53h-222zM247 270h172l-82 239h-6zM331 719l-14 44q17 5 25.5 14t8.5 22t-9.5 20t-24.5 7q-11 0 -21.5 -3.5t-21.5 -9.5l-15 42q12 7 28 12t35 5q37 0 59.5 -20t22.5 -51
t-19 -51.5t-54 -30.5zM338 620q-45 -1 -75 26.5t-35 73.5h49q5 -26 20.5 -40.5t40.5 -14.5q23 0 39.5 14.5t20.5 40.5h50q-5 -46 -34.5 -72.5t-75.5 -27.5z" />
    <glyph glyph-name="uni1EB3" unicode="&#x1eb3;" horiz-adv-x="456" 
d="M174 -11q-61 0 -98 34t-37 83q0 45 21.5 72t57.5 39t79 12q34 0 69.5 -5.5t69.5 -14.5l-30 -5v53q0 47 -25 69t-68 22q-28 0 -65.5 -9.5t-69.5 -26.5l-22 48q35 22 79 32.5t79 10.5q52 0 89 -17t56.5 -48.5t19.5 -73.5v-211h62v-53h-127l-6 56h28q-39 -34 -76 -50.5
t-86 -16.5zM185 40q37 0 74 16t77 49l-30 -36v116l23 -18q-26 8 -59 13t-68 5t-64 -15.5t-29 -59.5q0 -30 20 -50t56 -20zM210 549l-14 44q17 5 25.5 14t8.5 22t-9.5 20t-24.5 7q-11 0 -21.5 -3.5t-21.5 -9.5l-15 42q12 7 28 12t35 5q37 0 59.5 -20t22.5 -51t-19 -51.5
t-54 -30.5zM217 450q-45 -1 -75 26.5t-35 73.5h49q5 -26 20.5 -40.5t40.5 -14.5q23 0 39.5 14.5t20.5 40.5h50q-5 -46 -34.5 -72.5t-75.5 -27.5z" />
    <glyph glyph-name="uni1EB4" unicode="&#x1eb4;" horiz-adv-x="675" 
d="M28 0v53h72l163 457h-63v53h275v-53h-65l168 -457h68v-53h-229v53h75l-57 164h-204l-56 -164h75v-53h-222zM247 270h172l-82 239h-6zM401 757q-22 0 -46.5 9.5t-47 18.5t-39.5 9q-25 0 -31 -33h-31q4 46 23.5 67t49.5 21q19 0 42.5 -9t46 -18.5t37.5 -9.5t24 8t13 27h29
q-3 -37 -19 -63.5t-51 -26.5zM338 620q-45 -1 -75 26.5t-35 73.5h49q5 -26 20.5 -40.5t40.5 -14.5q23 0 39.5 14.5t20.5 40.5h50q-5 -46 -34.5 -72.5t-75.5 -27.5z" />
    <glyph glyph-name="uni1EB5" unicode="&#x1eb5;" horiz-adv-x="456" 
d="M174 -11q-61 0 -98 34t-37 83q0 45 21.5 72t57.5 39t79 12q34 0 69.5 -5.5t69.5 -14.5l-30 -5v53q0 47 -25 69t-68 22q-28 0 -65.5 -9.5t-69.5 -26.5l-22 48q35 22 79 32.5t79 10.5q52 0 89 -17t56.5 -48.5t19.5 -73.5v-211h62v-53h-127l-6 56h28q-39 -34 -76 -50.5
t-86 -16.5zM185 40q37 0 74 16t77 49l-30 -36v116l23 -18q-26 8 -59 13t-68 5t-64 -15.5t-29 -59.5q0 -30 20 -50t56 -20zM280 587q-22 0 -46.5 9.5t-47 18.5t-39.5 9q-25 0 -31 -33h-31q4 46 23.5 67t49.5 21q19 0 42.5 -9t46 -18.5t37.5 -9.5t24 8t13 27h29
q-3 -37 -19 -63.5t-51 -26.5zM217 450q-45 -1 -75 26.5t-35 73.5h49q5 -26 20.5 -40.5t40.5 -14.5q23 0 39.5 14.5t20.5 40.5h50q-5 -46 -34.5 -72.5t-75.5 -27.5z" />
    <glyph glyph-name="uni1EB6" unicode="&#x1eb6;" horiz-adv-x="675" 
d="M28 0v53h72l163 457h-63v53h275v-53h-65l168 -457h68v-53h-229v53h75l-57 164h-204l-56 -164h75v-53h-222zM247 270h172l-82 239h-6zM338 620q-45 -1 -75 26.5t-35 73.5h49q11 -55 61 -55q23 0 39.5 14.5t20.5 40.5h50q-5 -46 -34.5 -72.5t-75.5 -27.5zM334 -140
q-20 0 -34 13.5t-14 31.5q0 19 13.5 32t34.5 13q20 0 33.5 -12t13.5 -33q1 -17 -11.5 -31t-35.5 -14z" />
    <glyph glyph-name="uni1EB7" unicode="&#x1eb7;" horiz-adv-x="456" 
d="M174 -11q-61 0 -98 34t-37 83q0 45 21.5 72t57.5 39t79 12q34 0 69.5 -5.5t69.5 -14.5l-30 -5v53q0 47 -25 69t-68 22q-28 0 -65.5 -9.5t-69.5 -26.5l-22 48q35 22 79 32.5t79 10.5q52 0 89 -17t56.5 -48.5t19.5 -73.5v-211h62v-53h-127l-6 56h28q-39 -34 -76 -50.5
t-86 -16.5zM185 40q37 0 74 16t77 49l-30 -36v116l23 -18q-26 8 -59 13t-68 5t-64 -15.5t-29 -59.5q0 -30 20 -50t56 -20zM242 -140q-20 0 -34 13.5t-14 31.5q0 19 13.5 32t34.5 13q20 0 33.5 -12t13.5 -33q1 -17 -11.5 -31t-35.5 -14zM217 450q-45 -1 -75 26.5t-35 73.5h49
q11 -55 61 -55q23 0 39.5 14.5t20.5 40.5h50q-5 -46 -34.5 -72.5t-75.5 -27.5z" />
    <glyph glyph-name="uni1EB8" unicode="&#x1eb8;" horiz-adv-x="582" 
d="M39 0v53h78v457h-78v53h490v-167h-63v114h-267v-191h175v66h41v-188h-41v67h-175v-211h272v117h63v-170h-495zM327 -140q-20 0 -34 13.5t-14 31.5q0 19 13.5 32t34.5 13q20 0 33.5 -12t13.5 -33q1 -17 -11.5 -31t-35.5 -14z" />
    <glyph glyph-name="uni1EB9" unicode="&#x1eb9;" horiz-adv-x="461" 
d="M247 -12q-62 0 -112.5 26t-80 73t-29.5 109q0 64 28 110.5t75 72t105 25.5q60 0 103.5 -25t66.5 -71t23 -108v-19h-336l1 46h262q0 39 -15.5 66.5t-42.5 42t-62 14.5q-37 0 -67 -17.5t-47.5 -50t-17.5 -78.5q0 -49 18 -84.5t50.5 -55t74.5 -19.5q45 0 83 18t66 45l26 -45
q-27 -31 -70 -53t-102 -22zM237 -140q-20 0 -34 13.5t-14 31.5q0 19 13.5 32t34.5 13q20 0 33.5 -12t13.5 -33q1 -17 -11.5 -31t-35.5 -14z" />
    <glyph glyph-name="uni1EBA" unicode="&#x1eba;" horiz-adv-x="582" 
d="M39 0v53h78v457h-78v53h490v-167h-63v114h-267v-191h175v66h41v-188h-41v67h-175v-211h272v117h63v-170h-495zM310 606l-14 44q17 5 25.5 14t8.5 22t-9.5 20t-24.5 7q-11 0 -21.5 -3.5t-21.5 -9.5l-15 42q12 7 28 12t35 5q37 0 59.5 -20t22.5 -51t-19 -51.5t-54 -30.5z
" />
    <glyph glyph-name="uni1EBB" unicode="&#x1ebb;" horiz-adv-x="461" 
d="M247 -12q-62 0 -112.5 26t-80 73t-29.5 109q0 64 28 110.5t75 72t105 25.5q60 0 103.5 -25t66.5 -71t23 -108v-19h-336l1 46h262q0 39 -15.5 66.5t-42.5 42t-62 14.5q-37 0 -67 -17.5t-47.5 -50t-17.5 -78.5q0 -49 18 -84.5t50.5 -55t74.5 -19.5q45 0 83 18t66 45l26 -45
q-27 -31 -70 -53t-102 -22zM236 436l-14 44q17 5 25.5 14t8.5 22t-9.5 20t-24.5 7q-11 0 -21.5 -3.5t-21.5 -9.5l-15 42q12 7 28 12t35 5q37 0 59.5 -20t22.5 -51t-19 -51.5t-54 -30.5z" />
    <glyph glyph-name="uni1EBC" unicode="&#x1ebc;" horiz-adv-x="582" 
d="M39 0v53h78v457h-78v53h490v-167h-63v114h-267v-191h175v66h41v-188h-41v67h-175v-211h272v117h63v-170h-495zM373 640q-22 0 -46.5 9.5t-47 18.5t-39.5 9q-25 0 -31 -33h-31q4 46 23.5 67t49.5 21q19 0 42.5 -9t46 -18.5t37.5 -9.5t24 8t13 27h29q-3 -37 -19 -63.5
t-51 -26.5z" />
    <glyph glyph-name="uni1EBD" unicode="&#x1ebd;" horiz-adv-x="461" 
d="M247 -12q-62 0 -112.5 26t-80 73t-29.5 109q0 64 28 110.5t75 72t105 25.5q60 0 103.5 -25t66.5 -71t23 -108v-19h-336l1 46h262q0 39 -15.5 66.5t-42.5 42t-62 14.5q-37 0 -67 -17.5t-47.5 -50t-17.5 -78.5q0 -49 18 -84.5t50.5 -55t74.5 -19.5q45 0 83 18t66 45l26 -45
q-27 -31 -70 -53t-102 -22zM299 470q-22 0 -46.5 9.5t-47 18.5t-39.5 9q-25 0 -31 -33h-31q4 46 23.5 67t49.5 21q19 0 42.5 -9t46 -18.5t37.5 -9.5t24 8t13 27h29q-3 -37 -19 -63.5t-51 -26.5z" />
    <glyph glyph-name="uni1EBE" unicode="&#x1ebe;" horiz-adv-x="582" 
d="M39 0v53h78v457h-78v53h490v-167h-63v114h-267v-191h175v66h41v-188h-41v67h-175v-211h272v117h63v-170h-495zM188 619l83 127h78l83 -127h-56l-66 95l-66 -95h-56zM404 710l43 115h74l-70 -115h-47z" />
    <glyph glyph-name="uni1EBF" unicode="&#x1ebf;" horiz-adv-x="461" 
d="M247 -12q-62 0 -112.5 26t-80 73t-29.5 109q0 64 28 110.5t75 72t105 25.5q60 0 103.5 -25t66.5 -71t23 -108v-19h-336l1 46h262q0 39 -15.5 66.5t-42.5 42t-62 14.5q-37 0 -67 -17.5t-47.5 -50t-17.5 -78.5q0 -49 18 -84.5t50.5 -55t74.5 -19.5q45 0 83 18t66 45l26 -45
q-27 -31 -70 -53t-102 -22zM114 449l83 127h78l83 -127h-56l-66 95l-66 -95h-56zM330 540l43 115h74l-70 -115h-47z" />
    <glyph glyph-name="uni1EC0" unicode="&#x1ec0;" horiz-adv-x="582" 
d="M39 0v53h78v457h-78v53h490v-167h-63v114h-267v-191h175v66h41v-188h-41v67h-175v-211h272v117h63v-170h-495zM188 619l83 127h78l83 -127h-56l-66 95l-66 -95h-56zM471 710h-47l-70 115h74z" />
    <glyph glyph-name="uni1EC1" unicode="&#x1ec1;" horiz-adv-x="461" 
d="M247 -12q-62 0 -112.5 26t-80 73t-29.5 109q0 64 28 110.5t75 72t105 25.5q60 0 103.5 -25t66.5 -71t23 -108v-19h-336l1 46h262q0 39 -15.5 66.5t-42.5 42t-62 14.5q-37 0 -67 -17.5t-47.5 -50t-17.5 -78.5q0 -49 18 -84.5t50.5 -55t74.5 -19.5q45 0 83 18t66 45l26 -45
q-27 -31 -70 -53t-102 -22zM114 449l83 127h78l83 -127h-56l-66 95l-66 -95h-56zM397 540h-47l-70 115h74z" />
    <glyph glyph-name="uni1EC2" unicode="&#x1ec2;" horiz-adv-x="582" 
d="M39 0v53h78v457h-78v53h490v-167h-63v114h-267v-191h175v66h41v-188h-41v67h-175v-211h272v117h63v-170h-495zM188 619l83 127h78l83 -127h-56l-66 95l-66 -95h-56zM408 700l-14 44q17 5 25.5 14t8.5 22t-9.5 20t-24.5 7q-11 0 -21.5 -3.5t-21.5 -9.5l-15 42q12 7 28 12
t35 5q37 0 59.5 -20t22.5 -51t-19 -51.5t-54 -30.5z" />
    <glyph glyph-name="uni1EC3" unicode="&#x1ec3;" horiz-adv-x="461" 
d="M247 -12q-62 0 -112.5 26t-80 73t-29.5 109q0 64 28 110.5t75 72t105 25.5q60 0 103.5 -25t66.5 -71t23 -108v-19h-336l1 46h262q0 39 -15.5 66.5t-42.5 42t-62 14.5q-37 0 -67 -17.5t-47.5 -50t-17.5 -78.5q0 -49 18 -84.5t50.5 -55t74.5 -19.5q45 0 83 18t66 45l26 -45
q-27 -31 -70 -53t-102 -22zM114 449l83 127h78l83 -127h-56l-66 95l-66 -95h-56zM334 530l-14 44q17 5 25.5 14t8.5 22t-9.5 20t-24.5 7q-11 0 -21.5 -3.5t-21.5 -9.5l-15 42q12 7 28 12t35 5q37 0 59.5 -20t22.5 -51t-19 -51.5t-54 -30.5z" />
    <glyph glyph-name="uni1EC4" unicode="&#x1ec4;" horiz-adv-x="582" 
d="M39 0v53h78v457h-78v53h490v-167h-63v114h-267v-191h175v66h41v-188h-41v67h-175v-211h272v117h63v-170h-495zM188 619l83 127h78l83 -127h-56l-66 95l-66 -95h-56zM373 772q-22 0 -46.5 9.5t-47 18.5t-39.5 9q-25 0 -31 -33h-31q4 46 23.5 67t49.5 21q19 0 42.5 -9
t46 -18.5t37.5 -9.5t24 8t13 27h29q-3 -37 -19 -63.5t-51 -26.5z" />
    <glyph glyph-name="uni1EC5" unicode="&#x1ec5;" horiz-adv-x="461" 
d="M247 -12q-62 0 -112.5 26t-80 73t-29.5 109q0 64 28 110.5t75 72t105 25.5q60 0 103.5 -25t66.5 -71t23 -108v-19h-336l1 46h262q0 39 -15.5 66.5t-42.5 42t-62 14.5q-37 0 -67 -17.5t-47.5 -50t-17.5 -78.5q0 -49 18 -84.5t50.5 -55t74.5 -19.5q45 0 83 18t66 45l26 -45
q-27 -31 -70 -53t-102 -22zM114 449l83 127h78l83 -127h-56l-66 95l-66 -95h-56zM299 602q-22 0 -46.5 9.5t-47 18.5t-39.5 9q-25 0 -31 -33h-31q4 46 23.5 67t49.5 21q19 0 42.5 -9t46 -18.5t37.5 -9.5t24 8t13 27h29q-3 -37 -19 -63.5t-51 -26.5z" />
    <glyph glyph-name="uni1EC6" unicode="&#x1ec6;" horiz-adv-x="582" 
d="M39 0v53h78v457h-78v53h490v-167h-63v114h-267v-191h175v66h41v-188h-41v67h-175v-211h272v117h63v-170h-495zM188 619l83 157h78l83 -157h-56l-66 125l-66 -125h-56zM327 -140q-20 0 -34 13.5t-14 31.5q0 19 13.5 32t34.5 13q20 0 33.5 -12t13.5 -33q1 -17 -11.5 -31
t-35.5 -14z" />
    <glyph glyph-name="uni1EC7" unicode="&#x1ec7;" horiz-adv-x="461" 
d="M247 -12q-62 0 -112.5 26t-80 73t-29.5 109q0 64 28 110.5t75 72t105 25.5q60 0 103.5 -25t66.5 -71t23 -108v-19h-336l1 46h262q0 39 -15.5 66.5t-42.5 42t-62 14.5q-37 0 -67 -17.5t-47.5 -50t-17.5 -78.5q0 -49 18 -84.5t50.5 -55t74.5 -19.5q45 0 83 18t66 45l26 -45
q-27 -31 -70 -53t-102 -22zM237 -140q-20 0 -34 13.5t-14 31.5q0 19 13.5 32t34.5 13q20 0 33.5 -12t13.5 -33q1 -17 -11.5 -31t-35.5 -14zM114 449l83 157h78l83 -157h-56l-66 125l-66 -125h-56z" />
    <glyph glyph-name="uni1EC8" unicode="&#x1ec8;" horiz-adv-x="339" 
d="M50 0v53h78v457h-78v53h239v-53h-79v-457h79v-53h-239zM170 606l-14 44q17 5 25.5 14t8.5 22t-9.5 20t-24.5 7q-11 0 -21.5 -3.5t-21.5 -9.5l-15 42q12 7 28 12t35 5q37 0 59.5 -20t22.5 -51t-19 -51.5t-54 -30.5z" />
    </font>
</defs>
</svg>
