<?xml version="1.0" standalone="no"?>
<!DOCTYPE svg PUBLIC "-//W3C//DTD SVG 1.1//EN" "http://www.w3.org/Graphics/SVG/1.1/DTD/svg11.dtd" >
<svg xmlns="http://www.w3.org/2000/svg" xmlns:xlink="http://www.w3.org/1999/xlink" version="1.1">
<metadata>
Created by FontForge 20170731 at Thu Jan  1 09:20:03 1970
 By Aleksey,,,
Typeface (c) The Monotype Corporation plc. Data (c) The Monotype Corporation plc/Type Solutions Inc. 1990-1992. All Rights Reserved
</metadata>
<defs>
<font id="ArialMT" horiz-adv-x="1139" >
  <font-face 
    font-family="Arial"
    font-weight="400"
    font-stretch="normal"
    units-per-em="2048"
    panose-1="2 11 6 4 2 2 2 2 2 4"
    ascent="1638"
    descent="-410"
    x-height="1062"
    cap-height="1466"
    bbox="-455 -431 2048 1869"
    underline-thickness="150"
    underline-position="-442"
    unicode-range="U+0020-FB02"
  />
<missing-glyph horiz-adv-x="1536" 
d="M256 0v1280h1024v-1280h-1024zM288 32h960v1216h-960v-1216z" />
    <glyph glyph-name="fi" unicode="fi" horiz-adv-x="1024" 
d="M183 0v923h-160v139h160v103q0 326 283 326q97 0 183 -23l-28 -152q-53 9 -97 9q-93 0 -127 -37t-34 -157v-69h206v-139h-206v-923h-180zM705 1259v207h180v-207h-180zM705 0v1062h180v-1062h-180z" />
    <glyph glyph-name="fl" unicode="fl" horiz-adv-x="1024" 
d="M183 0v923h-160v139h160v103q0 326 283 326q97 0 183 -23l-28 -152q-53 9 -97 9q-93 0 -127 -37t-34 -157v-69h206v-139h-206v-923h-180zM703 0v1466h180v-1466h-180z" />
    <glyph glyph-name=".notdef" horiz-adv-x="1536" 
d="M256 0v1280h1024v-1280h-1024zM288 32h960v1216h-960v-1216z" />
    <glyph glyph-name=".null" horiz-adv-x="0" 
 />
    <glyph glyph-name="nonmarkingreturn" horiz-adv-x="682" 
 />
    <glyph glyph-name="space" unicode=" " horiz-adv-x="569" 
 />
    <glyph glyph-name="exclam" unicode="!" horiz-adv-x="569" 
d="M231 364l-55 777v325h223v-325l-52 -777h-116zM184 0v205h207v-205h-207z" />
    <glyph glyph-name="quotedbl" unicode="&#x22;" horiz-adv-x="727" 
d="M144 947l-50 279v240h205v-240l-45 -279h-110zM475 947l-49 279v240h205v-240l-48 -279h-108z" />
    <glyph glyph-name="numbersign" unicode="#" 
d="M103 -25l87 426h-169v149h199l74 363h-273v149h303l87 429h150l-87 -429h315l87 429h151l-87 -429h173v-149h-203l-75 -363h278v-149h-308l-87 -426h-150l86 426h-314l-87 -426h-150zM370 550h314l75 363h-315z" />
    <glyph glyph-name="dollar" unicode="$" 
d="M510 -211v180q-134 16 -220 60q-85 44 -146 141q-60 96 -71 237l181 34q21 -145 74 -213q77 -97 182 -107v573q-110 21 -227 86q-86 48 -132.5 133t-46.5 193q0 193 136 311q92 80 270 98v86h106v-86q157 -15 249 -92q118 -97 142 -269l-186 -28q-16 105 -66 162t-139 75
v-519q142 -36 180 -53q247 -109 247 -374q0 -187 -119 -312t-308 -134v-182h-106zM510 1365q-104 -16 -166 -84q-60 -67 -60 -161q0 -95 53 -156t173 -97v498zM616 121q106 14 173 91q69 78 69 193q0 99 -49 157q-49 61 -193 107v-548z" />
    <glyph glyph-name="percent" unicode="%" horiz-adv-x="1821" 
d="M119 1114q0 158 79 267q80 110 229 110q138 0 228 -99q91 -97 91 -289q0 -186 -92 -287q-91 -100 -225 -100q-133 0 -222 99q-88 98 -88 299zM432 1367q-67 0 -112 -58q-44 -59 -44 -213q0 -140 45 -199q45 -57 111 -57q69 0 112 58q45 58 45 212q0 142 -45 199
q-45 58 -112 58zM433 -54l802 1545h146l-799 -1545h-149zM1067 344q0 158 79 267q80 110 230 110q138 0 228 -99q91 -97 91 -289q0 -186 -92 -287q-91 -100 -226 -100q-133 0 -222 99q-88 100 -88 299zM1381 597q-68 0 -113 -58q-44 -59 -44 -213q0 -140 45 -198t111 -58
q70 0 113 58q45 59 45 212q0 142 -45 199q-45 58 -112 58z" />
    <glyph glyph-name="ampersand" unicode="&#x26;" horiz-adv-x="1366" 
d="M973 173q-179 -198 -421 -198q-225 0 -357 152q-107 125 -107 277q0 271 349 438q-98 113 -132 185q-33 71 -33 137q0 132 103 229q104 98 261 98q150 0 245 -92q96 -91 96 -221q0 -209 -277 -357l263 -335q44 87 70 204l187 -40q-48 -192 -130 -316q99 -132 229 -225
l-121 -143q-110 70 -225 207zM607 937q117 69 151 121q35 53 35 115q0 75 -48 122q-47 48 -118 48q-72 0 -122 -47q-48 -46 -48 -115q0 -68 70 -151zM860 315l-330 409q-146 -88 -197 -162t-51 -147q0 -88 71 -185q71 -96 201 -96q81 0 167 50t139 131z" />
    <glyph glyph-name="quotesingle" unicode="'" horiz-adv-x="391" 
d="M136 947l-46 274v245h205v-245l-48 -274h-111z" />
    <glyph glyph-name="parenleft" unicode="(" horiz-adv-x="682" 
d="M479 -431q-148 187 -252 440q-103 251 -103 522q0 237 77 456q90 252 278 504h129q-119 -205 -160 -297q-62 -138 -96 -288q-43 -185 -43 -376q0 -480 299 -961h-129z" />
    <glyph glyph-name="parenright" unicode=")" horiz-adv-x="682" 
d="M253 -431h-129q299 481 299 961q0 191 -43 373q-36 155 -95 288q-38 87 -161 300h129q188 -252 278 -504q77 -219 77 -456q0 -269 -104 -522q-105 -256 -251 -440z" />
    <glyph glyph-name="asterisk" unicode="*" horiz-adv-x="797" 
d="M64 1197l46 142q154 -54 231 -97q-18 170 -20 249h145q-3 -95 -23 -248q105 53 236 96l46 -142q-130 -43 -249 -56q60 -51 172 -189l-120 -85q-56 77 -137 215q-72 -138 -130 -215l-118 85q112 139 166 189q-144 28 -245 56z" />
    <glyph glyph-name="plus" unicode="+" horiz-adv-x="1196" 
d="M513 237v402h-399v168h399v399h170v-399h399v-168h-399v-402h-170z" />
    <glyph glyph-name="comma" unicode="," horiz-adv-x="569" 
d="M182 0v205h205v-205q0 -113 -40 -182.5t-127 -107.5l-50 77q58 25 84.5 74t29.5 139h-102z" />
    <glyph glyph-name="hyphen" unicode="-" horiz-adv-x="682" 
d="M65 440v181h553v-181h-553z" />
    <glyph glyph-name="period" unicode="." horiz-adv-x="569" 
d="M186 0v205h205v-205h-205z" />
    <glyph glyph-name="slash" unicode="/" horiz-adv-x="569" 
d="M0 -25l425 1516h144l-424 -1516h-145z" />
    <glyph glyph-name="zero" unicode="0" 
d="M85 723q0 259 53 418q54 160 159 245q107 86 266 86q235 0 354 -185q57 -87 91 -218q33 -127 33 -346q0 -256 -53 -417q-53 -158 -159 -245q-106 -86 -266 -86q-211 0 -333 152q-145 182 -145 596zM270 723q0 -361 84 -481q86 -119 209 -119q124 0 208 120q85 119 85 480
q0 363 -85 481q-84 119 -210 119q-125 0 -198 -105q-93 -134 -93 -495z" />
    <glyph glyph-name="one" unicode="1" 
d="M763 0h-180v1147q-67 -64 -171 -124q-105 -61 -189 -93v174q149 69 264 172q113 101 160 196h116v-1472z" />
    <glyph glyph-name="two" unicode="2" 
d="M1031 173v-173h-969q-2 65 21 125q38 100 118 195q85 99 236 222q241 198 323 310q84 116 84 217q0 106 -77 180t-199 74q-130 0 -208 -78q-77 -77 -79 -216l-185 19q19 206 142.5 315t333.5 109q211 0 334 -117t123 -290q0 -178 -156 -352q-80 -91 -277 -258
q-164 -138 -208 -185q-46 -47 -76 -97h719z" />
    <glyph glyph-name="three" unicode="3" 
d="M86 387l180 24q58 -288 287 -288q127 0 214 88q88 88 88 218q0 125 -81 204q-81 81 -206 81q-49 0 -127 -20l20 158q24 -2 29 -2q116 0 207 60q92 60 92 185q0 100 -67 164q-68 65 -173 65q-107 0 -176 -67t-89 -197l-180 32q33 181 150 280q116 100 291 100
q121 0 221 -52q102 -52 154 -140q54 -88 54 -189q0 -97 -52 -174.5t-150 -122.5q130 -30 202 -124.5t72 -236.5q0 -192 -140 -326q-139 -133 -354 -133q-194 0 -321 115t-145 298z" />
    <glyph glyph-name="four" unicode="4" 
d="M662 0v351h-636v165l669 950h147v-950h198v-165h-198v-351h-180zM662 516v661l-459 -661h459z" />
    <glyph glyph-name="five" unicode="5" 
d="M85 384l189 16q21 -135 96 -206t186 -71q130 0 220 98q90 97 90 260q0 155 -87 243q-86 89 -226 89q-85 0 -155.5 -38.5t-111.5 -103.5l-169 22l142 753h729v-172h-585l-79 -394q133 92 277 92q192 0 324 -133t132 -342q0 -198 -116 -344q-141 -178 -385 -178
q-200 0 -327 112q-126 113 -144 297z" />
    <glyph glyph-name="six" unicode="6" 
d="M1019 1107l-179 -14q-24 105 -68 154q-74 77 -180 77q-86 0 -151 -48q-83 -60 -134 -181q-49 -119 -51 -339q64 96 157 145.5t199 49.5q180 0 306 -133q127 -131 127 -342q0 -138 -60 -257q-58 -117 -163 -181q-104 -63 -236 -63q-224 0 -367 165q-142 166 -142 546
q0 425 157 618q136 168 369 168q174 0 283 -97q111 -97 133 -268zM284 475q0 -93 39 -178q40 -85 111 -130q71 -44 149 -44q113 0 196 92q82 91 82 250q0 152 -81 239q-81 88 -204 88q-122 0 -207 -88q-85 -86 -85 -229z" />
    <glyph glyph-name="seven" unicode="7" 
d="M97 1274v173h949v-140q-141 -150 -278 -396q-138 -250 -212 -508q-54 -185 -69 -403h-185q3 172 68 418t186 472q120 225 259 384h-718z" />
    <glyph glyph-name="eight" unicode="8" 
d="M362 795q-220 81 -220 299q0 160 115 269t306 109q193 0 309 -112q117 -111 117 -271q0 -212 -216 -294q134 -44 205 -141.5t71 -234.5q0 -189 -133 -316q-134 -128 -350 -128t-350 128q-133 129 -133 321q0 143 72.5 239.5t206.5 131.5zM326 1100q0 -104 67 -170
t174 -66q103 0 170 65q67 66 67 161q0 98 -69 166q-68 68 -170 68q-103 0 -171 -66t-68 -158zM268 423q0 -77 36 -149q37 -72 109 -112q72 -39 155 -39q128 0 213 83q84 83 84 211q0 130 -87 215q-85 85 -216 85q-127 0 -211 -84q-83 -85 -83 -210z" />
    <glyph glyph-name="nine" unicode="9" 
d="M112 339l173 16q41 -232 243 -232q160 0 248 139q40 64 67 172t27 220q0 20 -1 36q-55 -87 -148 -140q-94 -53 -202 -53q-182 0 -308 132t-126 348q0 222 131 359q132 136 330 136q142 0 261 -77q118 -76 180 -220t62 -412q0 -283 -61 -448q-62 -167 -182 -253
q-120 -87 -282 -87q-171 0 -281 95q-108 95 -131 269zM849 986q0 154 -83 246q-82 91 -198 91q-120 0 -209 -98t-89 -254q0 -139 84 -228q86 -87 209 -87q125 0 205 87q81 89 81 243z" />
    <glyph glyph-name="colon" unicode=":" horiz-adv-x="569" 
d="M185 857v205h205v-205h-205zM185 0v205h205v-205h-205z" />
    <glyph glyph-name="semicolon" unicode=";" horiz-adv-x="569" 
d="M182 857v205h205v-205h-205zM182 0v205h205v-205q0 -113 -40 -182.5t-127 -107.5l-50 77q58 25 84.5 74t29.5 139h-102z" />
    <glyph glyph-name="less" unicode="&#x3c;" horiz-adv-x="1196" 
d="M112 641v168l971 410v-179l-770 -316l770 -319v-179z" />
    <glyph glyph-name="equal" unicode="=" horiz-adv-x="1196" 
d="M1082 862h-968v168h968v-168zM1082 417h-968v168h968v-168z" />
    <glyph glyph-name="greater" unicode="&#x3e;" horiz-adv-x="1196" 
d="M1083 641l-971 -415v179l769 319l-769 316v179l971 -410v-168z" />
    <glyph glyph-name="question" unicode="?" 
d="M472 361q-1 24 -1 54q0 107 30 183q23 61 71 117q33 40 129 125q92 81 122 132q28 49 28 107q0 105 -82 184q-83 80 -201 80t-194 -74t-99 -223l-185 22q25 204 148 313.5t327 109.5q215 0 343 -117t128 -283q0 -96 -45 -177t-176 -197q-88 -78 -115 -115
q-26 -37 -40 -85t-15 -156h-173zM461 0v205h205v-205h-205z" />
    <glyph glyph-name="at" unicode="@" horiz-adv-x="2079" 
d="M1161 163q-67 -77 -147.5 -121.5t-159.5 -44.5q-93 0 -176 54t-134 158q-52 107 -52 237q0 159 81 318q83 161 203 240q122 80 235 80q89 0 167.5 -46.5t134.5 -137.5l34 155h179l-144 -671q-30 -140 -30 -155q0 -27 20.5 -46.5t49.5 -19.5q54 0 139 61q113 79 180 214
q67 134 67 278q0 166 -86 312q-85 145 -255 232q-169 87 -374 87q-234 0 -428 -110t-300 -314q-106 -203 -106 -438q0 -246 106 -422q106 -177 308 -261q201 -85 447 -85q263 0 439 88q177 88 265 214h181q-51 -105 -175 -214t-295 -172q-170 -64 -412 -64q-225 0 -412 58
t-317 171q-131 113 -199 263q-84 189 -84 408q0 246 100 465q123 273 348 416t543 143q248 0 445 -102q198 -100 312 -302q97 -172 97 -376q0 -290 -204 -515q-181 -202 -398 -202q-132 0 -174 81q-13 25 -19 86zM677 434q0 -136 65 -213q64 -76 149 -76q57 0 119 34t117 99
q57 66 93 167q36 102 36 204q0 135 -68 211q-68 75 -164 75q-129 0 -230 -137q-54 -75 -85 -175q-32 -105 -32 -189z" />
    <glyph glyph-name="A" unicode="A" horiz-adv-x="1366" 
d="M-3 0l563 1466h209l600 -1466h-221l-171 444h-613l-161 -444h-206zM420 602h497l-153 406q-65 170 -104 304q-29 -143 -79 -280z" />
    <glyph glyph-name="B" unicode="B" horiz-adv-x="1366" 
d="M150 0v1466h550q166 0 268 -44t160 -138q58 -91 58 -193q0 -97 -52.5 -179t-152.5 -132q132 -39 204 -132.5t72 -222.5q0 -102 -44 -192q-44 -89 -107 -136q-129 -97 -397 -97h-559zM344 850h317q128 0 185 17q149 44 149 201q0 74 -35.5 129t-99.5 75q-64 21 -223 21
h-293v-443zM344 173h365q97 0 132 7q68 12 112.5 40.5t73.5 80.5q29 55 29 124q0 82 -42 142.5t-117 84.5q-72 25 -214 25h-339v-504z" />
    <glyph glyph-name="C" unicode="C" horiz-adv-x="1479" 
d="M1204 514l194 -49q-62 -240 -220 -365t-387 -125q-233 0 -382.5 94.5t-229.5 281.5q-77 184 -77 393q0 230 87 399q88 170 249 259q163 89 356 89q221 0 370 -112q151 -113 209 -315l-191 -45q-50 158 -146.5 232t-245.5 74q-169 0 -283 -81q-112 -81 -159 -218
q-46 -135 -46 -281q0 -191 56 -329t168 -206q116 -69 249 -69q165 0 277.5 95t151.5 278z" />
    <glyph glyph-name="D" unicode="D" horiz-adv-x="1479" 
d="M158 0v1466h505q171 0 261 -21q127 -29 215 -105q231 -195 231 -599q0 -237 -77.5 -401t-195.5 -242q-147 -98 -410 -98h-529zM352 173h313q145 0 227 27q83 27 132 76q146 146 146 468q0 231 -76 353q-75 124 -183 166q-78 30 -251 30h-308v-1120z" />
    <glyph glyph-name="E" unicode="E" horiz-adv-x="1366" 
d="M162 0v1466h1060v-173h-866v-449h811v-172h-811v-499h900v-173h-1094z" />
    <glyph glyph-name="F" unicode="F" horiz-adv-x="1251" 
d="M168 0v1466h989v-173h-795v-454h688v-173h-688v-666h-194z" />
    <glyph glyph-name="G" unicode="G" horiz-adv-x="1593" 
d="M844 575v172l621 1v-544q-288 -229 -607 -229q-215 0 -393 92q-177 94 -266 268q-90 175 -90 391q0 213 89 399q90 186 258 276t387 90q161 0 287 -52q128 -50 202 -143q74 -92 111 -240l-175 -48q-33 112 -82 176q-50 65 -140 102q-92 39 -202 39q-190 0 -307.5 -81
t-171.5 -211q-56 -138 -56 -295q0 -195 67 -327.5t197 -196.5q128 -64 274 -64q126 0 246 48q123 51 182 104v273h-431z" />
    <glyph glyph-name="H" unicode="H" horiz-adv-x="1479" 
d="M164 0v1466h194v-602h762v602h194v-1466h-194v691h-762v-691h-194z" />
    <glyph glyph-name="I" unicode="I" horiz-adv-x="569" 
d="M191 0v1466h194v-1466h-194z" />
    <glyph glyph-name="J" unicode="J" horiz-adv-x="1024" 
d="M59 416l175 24q8 -169 63 -230q56 -62 155 -62q72 0 125.5 33.5t73.5 90.5q20 60 20 184v1010h194v-999q0 -185 -45 -285q-44 -102 -141 -154q-97 -53 -226 -53q-194 0 -296 112t-98 329z" />
    <glyph glyph-name="K" unicode="K" horiz-adv-x="1366" 
d="M150 0v1466h194v-727l728 727h263l-615 -594l642 -872h-256l-522 742l-240 -234v-508h-194z" />
    <glyph glyph-name="L" unicode="L" 
d="M150 0v1466h194v-1293h722v-173h-916z" />
    <glyph glyph-name="M" unicode="M" horiz-adv-x="1706" 
d="M152 0v1466h292l347 -1038q41 -126 70 -217q31 97 78 235l351 1020h261v-1466h-187v1227l-426 -1227h-175l-424 1248v-1248h-187z" />
    <glyph glyph-name="N" unicode="N" horiz-adv-x="1479" 
d="M156 0v1466h199l770 -1151v1151h186v-1466h-199l-770 1152v-1152h-186z" />
    <glyph glyph-name="O" unicode="O" horiz-adv-x="1593" 
d="M99 714q0 366 196 571q197 207 506 207q203 0 366 -97q162 -97 248 -271t86 -393q0 -223 -90 -399t-255 -267q-165 -90 -356 -90q-207 0 -370 100t-247 273q-84 172 -84 366zM299 711q0 -266 142 -418q143 -152 358 -152q219 0 360 154q142 154 142 437
q0 180 -60.5 313.5t-177.5 205.5q-116 74 -261 74q-207 0 -355 -142q-148 -141 -148 -472z" />
    <glyph glyph-name="P" unicode="P" horiz-adv-x="1366" 
d="M158 0v1466h553q144 0 223 -14q213 -35 298 -210q45 -92 45 -200q0 -186 -119 -317q-118 -129 -430 -129h-376v-596h-194zM352 769h379q188 0 267 70t79 197q0 91 -46 157t-123 87q-48 13 -181 13h-375v-524z" />
    <glyph glyph-name="Q" unicode="Q" horiz-adv-x="1593" 
d="M1269 157q133 -92 249 -136l-57 -135q-157 57 -315 180q-163 -91 -360 -91q-199 0 -361 96q-161 96 -250 270q-87 174 -87 392t88 395q88 178 250 271q164 93 364 93q203 0 366 -97q162 -95 248 -270q86 -174 86 -391q0 -363 -221 -577zM842 405q166 -46 277 -140
q171 156 171 469q0 179 -61 312t-177 205q-116 74 -261 74q-217 0 -360 -149t-143 -443q0 -286 141 -439q143 -153 362 -153q105 0 196 39q-91 58 -192 84z" />
    <glyph glyph-name="R" unicode="R" horiz-adv-x="1479" 
d="M161 0v1466h650q197 0 298 -40q102 -39 163 -139t61 -221q0 -156 -101 -263q-102 -108 -312 -136q78 -38 117 -73q83 -76 161 -195l255 -399h-244l-194 305q-64 100 -109.5 162.5t-83.5 98.5t-66.5 52t-67.5 26q-31 7 -108 7h-225v-651h-194zM355 819h417
q132 0 207.5 27.5t114.5 87.5q39 62 39 132q0 104 -76 171q-74 67 -238 67h-464v-485z" />
    <glyph glyph-name="S" unicode="S" horiz-adv-x="1366" 
d="M92 471l183 16q13 -112 61.5 -181.5t146.5 -113.5q99 -43 225 -43q165 -2 267 71t97 178q0 71 -41 122t-131 85q-62 24 -261 71q-205 50 -283 92q-208 108 -208 319q0 111 63 207q63 98 184 147q123 50 269 50q164 0 288.5 -53t190.5 -154q67 -102 72 -231l-186 -14
q-30 281 -357 281q-175 0 -257 -65q-80 -65 -80 -155q0 -79 57 -130q55 -51 292 -105q236 -52 325 -93q250 -115 250 -358q0 -118 -67 -221q-67 -102 -193 -161q-125 -57 -282 -57q-391 0 -545 232q-75 115 -80 264z" />
    <glyph glyph-name="T" unicode="T" horiz-adv-x="1251" 
d="M531 0v1293h-483v173h1162v-173h-485v-1293h-194z" />
    <glyph glyph-name="U" unicode="U" horiz-adv-x="1479" 
d="M1120 1466h194v-847q0 -219 -50 -351q-49 -128 -181 -212q-131 -81 -342 -81q-408 0 -524 276q-56 136 -56 368v847h194v-846q0 -189 35 -282q36 -89 122 -139q86 -49 212 -49q214 0 305 97t91 373v846z" />
    <glyph glyph-name="V" unicode="V" horiz-adv-x="1366" 
d="M577 0l-568 1466h210l381 -1065q42 -116 77 -240q36 126 79 240l396 1065h198l-574 -1466h-199z" />
    <glyph glyph-name="W" unicode="W" horiz-adv-x="1933" 
d="M414 0l-389 1466h199l223 -961q38 -159 62 -300q55 233 66 271l279 990h234l210 -742q80 -276 114 -519q30 148 73 319l230 942h195l-402 -1466h-187l-309 1117q-34 122 -46 172q-19 -87 -43 -172l-311 -1117h-198z" />
    <glyph glyph-name="X" unicode="X" horiz-adv-x="1366" 
d="M9 0l567 764l-500 702h231l266 -376q87 -123 118 -180q55 89 116 167l295 389h211l-515 -691l555 -775h-240l-369 523q-24 34 -64 98q-56 -90 -70 -110l-368 -511h-233z" />
    <glyph glyph-name="Y" unicode="Y" horiz-adv-x="1366" 
d="M571 0v621l-565 845h236l289 -442q87 -137 149 -248q67 118 160 259l284 431h226l-585 -845v-621h-194z" />
    <glyph glyph-name="Z" unicode="Z" horiz-adv-x="1251" 
d="M41 0v180l751 939q77 98 152 174h-818v173h1050v-173l-823 -1017l-89 -103h936v-173h-1159z" />
    <glyph glyph-name="bracketleft" unicode="[" horiz-adv-x="569" 
d="M139 -407v1873h397v-149h-217v-1575h217v-149h-397z" />
    <glyph glyph-name="backslash" unicode="\" horiz-adv-x="569" 
d="M425 -25l-425 1516h145l424 -1516h-144z" />
    <glyph glyph-name="bracketright" unicode="]" horiz-adv-x="569" 
d="M436 -407h-397v149h217v1575h-217v149h397v-1873z" />
    <glyph glyph-name="asciicircum" unicode="^" horiz-adv-x="961" 
d="M239 690h-185l353 801h145l355 -801h-181l-247 597z" />
    <glyph glyph-name="underscore" unicode="_" 
d="M-31 -407v130h1193v-130h-1193z" />
    <glyph glyph-name="grave" unicode="`" horiz-adv-x="682" 
d="M465 1194h-145l-231 280h241z" />
    <glyph glyph-name="a" unicode="a" 
d="M828 131q-101 -86 -193 -120q-93 -35 -198 -35q-175 0 -269 85t-94 219q0 115 73.5 196t184.5 109q52 13 160 27q215 25 321 62q1 25 1 47q0 110 -51 155q-68 61 -205 61q-126 0 -188 -45q-60 -44 -89 -157l-176 24q24 115 79.5 184t158.5 105q105 38 241 38
q254 0 346 -113q39 -46 56 -122q9 -46 9 -166v-240q0 -247 11 -318q12 -67 46 -127h-188q-28 55 -36 131zM813 533q-94 -39 -294 -68q-110 -16 -157 -36q-45 -19 -71 -59q-25 -37 -25 -85q0 -75 56 -121.5t158 -46.5q104 0 185 45.5t119 124.5q29 63 29 180v66z" />
    <glyph glyph-name="b" unicode="b" 
d="M301 0h-167v1466h180v-523q114 143 291 143q99 0 186 -39.5t143 -111.5q57 -72 89 -173t32 -215q0 -273 -135 -422t-324 -149t-295 157v-133zM299 539q0 -191 52 -276q85 -139 230 -139q119 0 204 102q86 104 86 306q0 207 -83 307q-82 99 -199 99q-119 0 -204 -103
q-86 -103 -86 -296z" />
    <glyph glyph-name="c" unicode="c" horiz-adv-x="1024" 
d="M828 389l177 -23q-29 -183 -149 -287q-118 -103 -293 -103q-218 0 -351 142q-132 142 -132 409q0 175 58 303t172 191q118 65 254 65q173 0 283 -87.5t141 -248.5l-175 -27q-24 106 -87.5 160.5t-154.5 54.5q-135 0 -221 -98q-85 -97 -85 -308q0 -214 82 -311t214 -97
q109 0 179 66.5t88 198.5z" />
    <glyph glyph-name="d" unicode="d" 
d="M824 0v134q-101 -158 -297 -158q-128 0 -234 70q-107 70 -165 195t-58 289q0 158 53 288q52 130 159 199q106 69 237 69q93 0 168.5 -39t124.5 -107v526h179v-1466h-167zM255 530q0 -204 86 -305t203 -101q118 0 200 96q83 98 83 295q0 218 -84 320t-207 102
q-120 0 -201 -98q-80 -98 -80 -309z" />
    <glyph glyph-name="e" unicode="e" 
d="M862 342l186 -23q-45 -165 -164.5 -254t-302.5 -89q-233 0 -370 143q-136 143 -136 403q0 268 138 416t358 148q213 0 348 -145t135 -408q0 -27 -1 -48h-792q10 -175 99 -268q88 -93 222 -93q201 0 280 218zM271 633h593q-12 133 -68 201q-86 104 -223 104
q-123 0 -209 -83q-84 -83 -93 -222z" />
    <glyph glyph-name="f" unicode="f" horiz-adv-x="569" 
d="M178 0v922h-159v140h159v113q0 108 19 159q59 157 275 157q76 0 168 -18l-27 -157q-53 10 -106 10q-81 0 -116 -35q-34 -34 -34 -131v-98h207v-140h-207v-922h-179z" />
    <glyph glyph-name="g" unicode="g" 
d="M102 -88l175 -26q10 -80 61 -118q68 -50 183 -50q234 0 285 190q14 59 13 231q-118 -139 -294 -139q-219 0 -339 158t-120 379q0 154 55 280q55 128 159 199q104 70 246 70q188 0 310 -152v128h166v-918q0 -248 -51 -351q-49 -103 -160 -164q-109 -60 -269 -60
q-189 0 -307 86q-117 86 -113 257zM251 550q0 -208 83 -305q82 -96 208 -96q124 0 208 95q84 96 84 300q0 195 -87 294q-85 99 -208 99q-120 0 -204 -98q-84 -97 -84 -289z" />
    <glyph glyph-name="h" unicode="h" 
d="M135 0v1466h180v-526q126 146 318 146q118 0 205 -46.5t124 -128.5q38 -84 38 -238v-673h-180v673q0 258 -224 258q-80 0 -151 -42q-69 -40 -100 -112q-30 -71 -30 -196v-581h-180z" />
    <glyph glyph-name="i" unicode="i" horiz-adv-x="455" 
d="M136 1259v207h180v-207h-180zM136 0v1062h180v-1062h-180z" />
    <glyph glyph-name="j" unicode="j" horiz-adv-x="455" 
d="M134 1257v209h180v-209h-180zM-94 -412l34 153q56 -14 85 -14q55 0 82 37q27 36 27 182v1116h180v-1120q0 -196 -51 -273q-64 -100 -216 -100q-75 0 -141 19z" />
    <glyph glyph-name="k" unicode="k" horiz-adv-x="1024" 
d="M136 0v1466h180v-836l426 432h233l-406 -394l447 -668h-222l-351 543l-127 -122v-421h-180z" />
    <glyph glyph-name="l" unicode="l" horiz-adv-x="455" 
d="M131 0v1466h180v-1466h-180z" />
    <glyph glyph-name="m" unicode="m" horiz-adv-x="1706" 
d="M135 0v1062h161v-149q52 80 135.5 126.5t186.5 46.5q116 0 192.5 -48.5t107.5 -137.5q126 186 328 186q328 0 328 -357v-729h-179v669q0 109 -18 155q-17 49 -63 77q-47 29 -108 29q-112 0 -186 -75q-74 -74 -74 -238v-617h-180v690q0 122 -45 181t-143 59
q-77 0 -141 -40q-65 -40 -93 -117q-29 -78 -29 -222v-551h-180z" />
    <glyph glyph-name="n" unicode="n" 
d="M135 0v1062h162v-151q117 175 338 175q95 0 176 -35q80 -34 121 -90q39 -53 56 -133q10 -47 10 -175v-653h-180v646q0 110 -21 164q-21 56 -75 87q-52 33 -125 33q-116 0 -199 -73q-83 -74 -83 -277v-580h-180z" />
    <glyph glyph-name="o" unicode="o" 
d="M68 531q0 294 164 437q136 118 334 118q218 0 358 -144q139 -142 139 -396q0 -204 -62 -323q-62 -118 -179 -182q-118 -65 -256 -65q-223 0 -361 143q-137 143 -137 412zM253 531q0 -203 89 -306q89 -101 224 -101q134 0 223 102q89 103 89 311q0 197 -90 298
q-88 102 -222 102q-135 0 -224 -101t-89 -305z" />
    <glyph glyph-name="p" unicode="p" 
d="M135 -407v1469h164v-138q59 83 132.5 122.5t175.5 39.5q136 0 240 -70t157 -198q53 -129 53 -279q0 -162 -59 -294q-58 -130 -170 -200q-111 -69 -234 -69q-86 0 -158.5 36.5t-120.5 97.5v-517h-180zM298 525q0 -205 83 -303t201 -98q119 0 205 101q86 103 86 315
q0 204 -84 304q-83 101 -199 101t-204 -108q-88 -106 -88 -312z" />
    <glyph glyph-name="q" unicode="q" 
d="M812 -407v520q-43 -60 -118 -98q-75 -39 -160 -39q-190 0 -326 151t-136 414q0 161 55 287q55 127 161 192q106 66 232 66q198 0 310 -166v142h162v-1469h-180zM257 534q0 -204 86 -308q85 -102 206 -102q116 0 198 97q83 98 83 297q0 213 -88 319q-87 107 -205 107
q-117 0 -199 -100q-81 -99 -81 -310z" />
    <glyph glyph-name="r" unicode="r" horiz-adv-x="682" 
d="M133 0v1062h162v-161q62 113 114 149t116 36q91 0 185 -58l-62 -167q-66 39 -132 39q-60 0 -106.5 -35.5t-66.5 -98.5q-30 -96 -30 -210v-556h-180z" />
    <glyph glyph-name="s" unicode="s" horiz-adv-x="1024" 
d="M63 317l178 28q31 -221 275 -221q123 0 184 50q60 51 60 119q0 61 -53 96q-37 23 -184 61q-197 49 -275 86q-76 37 -116 101q-39 65 -39 143q0 70 32 131t89 101q44 32 117 53t153 21q124 0 219 -35.5t140 -98.5q46 -63 62 -164l-176 -24q-12 83 -70.5 128.5t-161.5 45.5
q-124 0 -177 -41t-53 -96q0 -35 22 -63q23 -28 69 -48q23 -9 159 -46q192 -51 266 -84q74 -31 119 -94q43 -61 43 -154q0 -90 -53 -170t-151 -123t-224 -43q-204 0 -314 85t-140 256z" />
    <glyph glyph-name="t" unicode="t" horiz-adv-x="569" 
d="M528 161l26 -159q-74 -16 -136 -16q-180 0 -228 112q-22 50 -22 213v611h-132v140h132v263l179 108v-371h181v-140h-181v-621q0 -77 9 -99q10 -22 31 -35q22 -13 62 -13q33 0 79 7z" />
    <glyph glyph-name="u" unicode="u" 
d="M831 0v156q-125 -180 -337 -180q-94 0 -176 36q-80 36 -121 90q-39 55 -55 134q-11 55 -11 168v658h180v-589q0 -138 11 -190q17 -71 72 -111.5t136 -40.5t152 41q72 43 100 113q30 72 30 208v569h180v-1062h-161z" />
    <glyph glyph-name="v" unicode="v" horiz-adv-x="1024" 
d="M430 0l-404 1062h190l228 -636q34 -93 68 -214q25 88 67 202l236 648h185l-402 -1062h-168z" />
    <glyph glyph-name="w" unicode="w" horiz-adv-x="1479" 
d="M331 0l-325 1062h186l169 -613l63 -228q1 5 7 28.5t20 79t28 111.5l169 622h185l159 -616l53 -203l61 205l182 614h175l-332 -1062h-187l-169 636l-41 181l-215 -817h-188z" />
    <glyph glyph-name="x" unicode="x" horiz-adv-x="1024" 
d="M15 0l388 552l-359 510h225l163 -249q34 -51 74 -119q44 66 81 117l179 251h215l-367 -500l395 -562h-221l-218 330l-58 89l-279 -419h-218z" />
    <glyph glyph-name="y" unicode="y" horiz-adv-x="1024" 
d="M127 -409l-20 169q57 -16 103 -16q106 0 155 76q18 30 55 134q1 3 16 44l-403 1064h194l221 -615q40 -107 77 -246q33 130 74 242l227 619h180l-404 -1080q-63 -171 -101 -241q-48 -89 -110 -130.5t-148 -41.5q-53 0 -116 22z" />
    <glyph glyph-name="z" unicode="z" horiz-adv-x="1024" 
d="M40 0v146l676 776q-115 -6 -203 -6h-433v146h868v-119l-575 -674l-111 -123q122 9 227 9h491v-155h-940z" />
    <glyph glyph-name="braceleft" unicode="{" horiz-adv-x="684" 
d="M57 612q77 2 125.5 41t64.5 109q15 65 17 236q2 168 6 220q15 122 58 179t128 84q36 10 124 10h56v-157h-31q-103 0 -138 -38q-34 -37 -34 -167q0 -259 -11 -331q-18 -106 -62 -165q-43 -58 -136 -103q110 -46 159 -141q50 -95 50 -309q0 -199 4 -232q7 -67 40 -95
q33 -27 128 -27h31v-157h-56q-100 0 -142 16q-136 50 -161 205q-11 76 -13 259q-2 184 -17 249q-17 69 -65 109t-125 42v163z" />
    <glyph glyph-name="bar" unicode="|" horiz-adv-x="532" 
d="M188 -431v1922h157v-1922h-157z" />
    <glyph glyph-name="braceright" unicode="}" horiz-adv-x="684" 
d="M626 612v-163q-76 -2 -125 -41.5t-65 -109.5q-15 -63 -17 -235q-2 -168 -6 -220q-16 -122 -58 -178.5t-128 -84.5q-39 -11 -124 -11h-56v157h31q103 0 138 38q34 37 34 168q0 250 9 317q16 110 64 177t136 104q-116 56 -162 145q-47 92 -47 306q0 191 -5 233
q-8 68 -40 93q-31 27 -127 27h-31v157h56q100 0 142 -16q65 -22 106.5 -74.5t53.5 -130.5q12 -73 14 -259q2 -184 17 -249q17 -68 64 -108q50 -40 126 -42z" />
    <glyph glyph-name="asciitilde" unicode="~" horiz-adv-x="1196" 
d="M87 557v205q106 120 278 120q60 0 126 -18q67 -17 188 -69q73 -30 103 -38q34 -9 70 -9q65 0 134 39q69 38 124 98v-212q-64 -60 -129.5 -87t-147.5 -27q-57 0 -115 14q-50 12 -173 67q-120 53 -197 53q-65 0 -121 -28q-57 -27 -140 -108z" />
    <glyph glyph-name="exclamdown" unicode="&#xa1;" horiz-adv-x="682" 
d="M447 1062v-205h-207v205h207zM400 697l55 -776v-325h-223v325l52 776h116z" />
    <glyph glyph-name="cent" unicode="&#xa2;" 
d="M744 894l-222 -766q33 -9 61 -9q103 0 179 71q76 70 93 199l179 -20q-33 -185 -157 -291q-122 -106 -291 -106q-47 0 -103 14l-118 -395l-112 32l115 398q-114 55 -188 183q-73 128 -73 322q0 179 59 306.5t174 190.5q116 64 238 64q31 0 100 -8l113 387l110 -32
l-112 -387q97 -42 151 -114t75 -183l-175 -27q-26 113 -96 171zM638 940q-31 3 -50 3q-86 0 -156 -47.5t-105 -139.5q-35 -96 -35 -221q0 -266 123 -358z" />
    <glyph glyph-name="sterling" unicode="&#xa3;" 
d="M396 809h315v-148h-284q19 -42 19 -88q0 -193 -178 -382q78 22 144 22q86 0 187 -25q175 -41 233 -41q72 0 192 56l58 -165q-91 -39 -143 -51q-49 -12 -100 -12q-39 0 -85 8q-26 4 -130 36q-107 33 -132 38q-50 8 -94 8q-72 0 -153.5 -25t-148.5 -68l-69 173
q94 51 163 151q67 98 67 241q0 59 -17 124h-196v148h154q-33 113 -42 163q-9 52 -9 101q0 208 154 325q125 93 300 93q182 0 298 -100q118 -99 145 -279l-179 -27q-15 120 -90 189q-73 69 -178 69q-111 0 -185 -72q-73 -70 -73 -172q0 -111 57 -290z" />
    <glyph glyph-name="currency" unicode="&#xa4;" 
d="M213 961l-139 136l115 119l139 -139q106 72 237 72q132 0 237 -72l139 139l116 -119l-139 -136q71 -110 71 -235q0 -126 -71 -236l139 -136l-116 -119l-139 140q-104 -73 -237 -73q-131 0 -237 73l-139 -140l-115 119l139 136q-71 110 -71 236q0 125 71 235zM305 726
q0 -108 76 -184t183 -76t183 76t76 184q0 107 -76 183q-75 76 -183 76q-107 0 -183 -76t-76 -183z" />
    <glyph glyph-name="yen" unicode="&#xa5;" 
d="M477 0v325h-415v139h415v143h-415v148h341l-406 711h200l290 -516q48 -87 76 -154q21 48 82 163l274 507h214l-405 -711h341v-148h-412v-143h412v-139h-412v-325h-180z" />
    <glyph glyph-name="brokenbar" unicode="&#xa6;" horiz-adv-x="532" 
d="M345 1491v-790h-157v790h157zM345 360v-791h-157v791h157z" />
    <glyph glyph-name="section" unicode="&#xa7;" 
d="M143 -70l181 26q28 -130 89 -182q62 -53 166 -53q103 0 159 52q58 52 58 122q0 51 -36 94q-61 75 -340 245q-150 93 -207 142q-58 52 -95 122t-37 146q0 96 60 174q59 77 165 109q-70 67 -99.5 124.5t-29.5 123.5q0 128 100 222t265 94q186 0 291.5 -88.5t126.5 -258.5
l-187 -19q-20 119 -71.5 168.5t-143.5 49.5q-91 0 -149 -50q-56 -50 -56 -109q0 -52 36 -96q57 -69 306 -220q153 -94 212 -141q138 -116 138 -263q0 -114 -73 -193q-42 -47 -154 -93q159 -120 159 -281q0 -87 -50 -166q-49 -79 -144 -120q-95 -42 -203 -42
q-190 0 -302.5 94.5t-134.5 266.5zM728 244q72 37 109.5 87t37.5 100q0 58 -52 120t-225 169q-136 84 -204 138q-80 -45 -115 -91t-35 -103q0 -64 46 -120q47 -58 207 -152q138 -82 231 -148z" />
    <glyph glyph-name="dieresis" unicode="&#xa8;" horiz-adv-x="682" 
d="M61 1270v205h188v-205h-188zM434 1270v205h188v-205h-188z" />
    <glyph glyph-name="copyright" unicode="&#xa9;" horiz-adv-x="1509" 
d="M758 1491q189 0 371 -98q181 -97 282 -279t101 -378t-100 -375q-99 -179 -279 -280q-179 -99 -375 -99t-376 99q-179 101 -279 280t-100 375t101 378q102 182 283 279q182 98 371 98zM758 1366q-159 0 -310 -82q-149 -80 -235 -233q-85 -151 -85 -315q0 -162 83 -313
q84 -149 234 -233q151 -83 313 -83t313 83q150 84 233 233q83 151 83 313q0 164 -85 315q-85 153 -235 233q-151 82 -309 82zM1000 614l123 -36q-30 -125 -128 -200q-98 -74 -236 -74q-177 0 -286 114q-110 115 -110 316q-3 197 110 313t294 113q131 0 219.5 -63t121.5 -173
l-119 -29q-30 74 -88.5 113.5t-137.5 39.5q-115 0 -190 -82q-74 -83 -74 -235q0 -153 70 -232q71 -78 183 -78q91 0 158 52q68 53 90 141z" />
    <glyph glyph-name="ordfeminine" unicode="&#xaa;" horiz-adv-x="758" 
d="M548 853q-122 -107 -256 -107q-114 0 -179 61q-66 61 -66 158q0 143 145 193q34 10 99 21l147 22q64 12 96 20q-2 72 -14 94q-14 25 -49 41q-35 18 -94 18q-147 0 -166 -125l-137 34q12 90 88 148q76 60 217 60q165 0 232 -61t67 -181v-240l-1 -61q0 -134 41 -184h-148
q-21 43 -22 89zM533 1104q-53 -14 -192 -36q-90 -14 -117 -39q-28 -25 -28 -64q0 -43 35 -71t95 -28q73 0 127 39t72 96q6 17 8 103z" />
    <glyph glyph-name="guillemotleft" unicode="&#xab;" 
d="M340 528l259 -456h-146l-319 456l319 456h148zM727 528l264 -456h-152l-313 456l313 456h152z" />
    <glyph glyph-name="logicalnot" unicode="&#xac;" horiz-adv-x="1196" 
d="M1082 424h-170v438h-798v168h968v-606z" />
    <glyph glyph-name="registered" unicode="&#xae;" horiz-adv-x="1509" 
d="M758 1491q189 0 371 -98q181 -97 282 -279t101 -378t-100 -375q-99 -179 -279 -280q-179 -99 -375 -99t-376 99q-179 101 -279 280t-100 375t101 378q102 182 283 279q182 98 371 98zM758 1366q-159 0 -310 -82q-149 -80 -235 -233q-85 -151 -85 -315q0 -162 83 -313
q84 -149 234 -233q151 -83 313 -83t313 83q150 84 233 233q83 151 83 313q0 164 -85 315q-85 153 -235 233q-151 82 -309 82zM427 319v812h279q141 0 207 -23q65 -22 102 -78q38 -56 38 -119q0 -90 -64 -155q-64 -67 -168 -74q44 -18 69 -43q49 -47 120 -161l99 -159h-160
l-72 128q-86 153 -137 189q-35 28 -105 28h-77v-345h-131zM558 776h159q115 0 155 34q42 34 42 90q0 36 -20 64.5t-56 42.5t-131 14h-149v-245z" />
    <glyph glyph-name="macron" unicode="&#xaf;" horiz-adv-x="682" 
d="M29 1227v148h624v-148h-624z" />
    <glyph glyph-name="degree" unicode="&#xb0;" horiz-adv-x="819" 
d="M128 1214q0 115 81 196q83 81 196 81q116 0 197 -81t81 -196t-82 -197q-81 -81 -196 -81q-113 0 -196 81q-81 81 -81 197zM237 1214q0 -71 49 -120t120 -49q69 0 118 49q50 50 50 120q0 69 -50 119t-118 50q-70 0 -120 -50q-49 -49 -49 -119z" />
    <glyph glyph-name="plusminus" unicode="&#xb1;" horiz-adv-x="1124" 
d="M477 260v403h-399v167h399v399h170v-399h399v-167h-399v-403h-170zM1046 0h-968v168h968v-168z" />
    <glyph glyph-name="twosuperior" unicode="&#xb2;" horiz-adv-x="682" 
d="M25 733q6 56 47 114q65 88 207 190q144 105 171 135q37 40 37 84q0 50 -36 80t-102 30t-99 -24q-32 -23 -53 -90l-151 16q30 112 101.5 164t204.5 52q150 0 221 -59t71 -144q0 -83 -59 -159q-46 -56 -205 -171q-88 -65 -118 -97h386v-121h-623z" />
    <glyph glyph-name="threesuperior" unicode="&#xb3;" horiz-adv-x="682" 
d="M33 929l146 15q19 -58 52 -82q43 -30 102 -30q71 0 114 39t43 94q0 110 -159 110q-5 0 -33 -2q-9 -1 -22 -1l22 110q77 -1 116.5 27.5t39.5 74.5q0 39 -31 64t-88 25q-56 0 -87.5 -22t-54.5 -80l-143 23q40 105 103 148q63 42 183 42q145 0 209 -54q66 -52 66 -133
q0 -56 -36 -99t-102 -61q87 -21 130 -71t43 -120q0 -93 -79 -162t-225 -69q-265 0 -309 214z" />
    <glyph glyph-name="acute" unicode="&#xb4;" horiz-adv-x="682" 
d="M222 1194l133 280h236l-220 -280h-149z" />
    <glyph glyph-name="mu" unicode="&#xb5;" horiz-adv-x="1180" 
d="M1018 1062v-1062h-161v126q-53 -81 -103 -110q-71 -41 -163 -41q-83 0 -147 33q-47 25 -106 99v-514h-178v1469h178v-450q0 -243 26 -318q26 -72 84 -114t135 -42q79 0 143 44q63 44 89 113q26 72 26 314v453h177z" />
    <glyph glyph-name="paragraph" unicode="&#xb6;" horiz-adv-x="1100" 
d="M405 -407v1045q-187 10 -296 121q-108 113 -108 285q0 193 120 307q121 115 353 115h633v-173h-144v-1700h-170v1700h-223v-1700h-165z" />
    <glyph glyph-name="periodcentered" unicode="&#xb7;" horiz-adv-x="569" 
d="M185 619v205h205v-205h-205z" />
    <glyph glyph-name="cedilla" unicode="&#xb8;" horiz-adv-x="682" 
d="M216 -154l52 177h134l-33 -107q81 -9 126 -50.5t45 -96.5q0 -75 -72 -132q-71 -58 -217 -58q-83 0 -144 12l11 117q57 -4 94 -4q94 0 132 26q29 20 29 49q-4 22 -11.5 33t-43 22t-102.5 12z" />
    <glyph glyph-name="onesuperior" unicode="&#xb9;" horiz-adv-x="682" 
d="M331 733v554q-103 -82 -224 -113v123q59 19 138 73q77 52 123 114h108v-751h-145z" />
    <glyph glyph-name="ordmasculine" unicode="&#xba;" horiz-adv-x="748" 
d="M373 1491q145 0 236 -100q92 -101 92 -276q0 -174 -92 -275q-91 -100 -235 -100q-145 0 -237 98t-92 273q0 180 91 280t237 100zM373 1358q-85 0 -132.5 -59.5t-47.5 -183.5q0 -121 49 -182t131 -61q84 0 132 61t48 187q0 118 -49 178t-131 60z" />
    <glyph glyph-name="guillemotright" unicode="&#xbb;" 
d="M791 528l-261 456h148l319 -456l-319 -456h-147zM404 528l-264 456h151l314 -456l-314 -456h-151z" />
    <glyph glyph-name="onequarter" unicode="&#xbc;" horiz-adv-x="1708" 
d="M252 -57l1102 1548h156l-1101 -1548h-157zM331 733v554q-103 -82 -224 -113v123q59 19 138 73q77 52 123 114h108v-751h-145zM1430 -31v154h-383v123l405 474h122v-489h104v-108h-104v-154h-144zM1430 231v263l-230 -263h230z" />
    <glyph glyph-name="onehalf" unicode="&#xbd;" horiz-adv-x="1708" 
d="M228 -57l1101 1548h157l-1101 -1548h-157zM331 733v554q-103 -82 -224 -113v123q59 19 138 73q77 52 123 114h108v-751h-145zM1049 -31q6 56 48 113q62 87 206 191q144 103 171 135q37 40 37 84q0 50 -35.5 79.5t-102.5 29.5q-66 0 -99 -24q-32 -23 -53 -89l-151 15
q30 113 102 165t204 52q150 0 221 -59t71 -144q0 -83 -59 -159q-47 -58 -204 -172q-86 -63 -119 -96h386v-121h-623z" />
    <glyph glyph-name="threequarters" unicode="&#xbe;" horiz-adv-x="1708" 
d="M252 -57l1101 1548h157l-1101 -1548h-157zM33 929l146 15q19 -58 52 -82q43 -30 102 -30q71 0 114 39t43 94q0 110 -156 110q-49 -3 -58 -3l22 110q77 -1 116.5 27.5t39.5 74.5q0 39 -31 64t-88 25q-56 0 -87.5 -22t-54.5 -80l-143 23q40 105 103 148q63 42 183 42
q145 0 209 -54q66 -52 66 -133q0 -56 -36 -99t-102 -61q87 -21 130 -71t43 -120q0 -93 -79 -162t-225 -69q-265 0 -309 214zM1429 -31v154h-382v123l404 474h123v-489h104v-108h-104v-154h-145zM1429 231v263l-229 -263h229z" />
    <glyph glyph-name="questiondown" unicode="&#xbf;" horiz-adv-x="1251" 
d="M733 1062v-205h-205v205h205zM721 701q1 -23 1 -51q0 -110 -30 -187q-23 -61 -71 -117q-34 -41 -130 -125q-93 -83 -121 -131q-27 -50 -27 -107q0 -106 82 -185t201 -79q117 0 193.5 73.5t99.5 222.5l184 -21q-25 -203 -148.5 -313t-325.5 -110q-217 0 -344 117t-127 283
q0 97 44 177q46 81 176 196q92 83 116 116q27 38 39 85q13 48 15 156h173z" />
    <glyph glyph-name="Agrave" unicode="&#xc0;" horiz-adv-x="1366" 
d="M-3 0l563 1466h209l600 -1466h-221l-171 444h-613l-161 -444h-206zM420 602h497l-153 406q-65 170 -104 304q-29 -143 -79 -280zM824 1556h-145l-231 280h241z" />
    <glyph glyph-name="Aacute" unicode="&#xc1;" horiz-adv-x="1366" 
d="M-3 0l563 1466h209l600 -1466h-221l-171 444h-613l-161 -444h-206zM420 602h497l-153 406q-65 170 -104 304q-29 -143 -79 -280zM581 1556l133 280h236l-220 -280h-149z" />
    <glyph glyph-name="Acircumflex" unicode="&#xc2;" horiz-adv-x="1366" 
d="M-3 0l563 1466h209l600 -1466h-221l-171 444h-613l-161 -444h-206zM420 602h497l-153 406q-65 170 -104 304q-29 -143 -79 -280zM681 1726l-113 -170h-206l216 280h192l225 -280h-204z" />
    <glyph glyph-name="Atilde" unicode="&#xc3;" horiz-adv-x="1366" 
d="M-3 0l563 1466h209l600 -1466h-221l-171 444h-613l-161 -444h-206zM420 602h497l-153 406q-65 170 -104 304q-29 -143 -79 -280zM349 1556q-2 104 57 166q57 62 146 62q62 0 169 -54q59 -30 94 -30q33 0 49.5 18.5t23.5 68.5h130q-3 -111 -56 -169.5t-140 -58.5
q-62 0 -166 56q-67 36 -98 36q-34 0 -55 -24q-23 -24 -21 -71h-133z" />
    <glyph glyph-name="Adieresis" unicode="&#xc4;" horiz-adv-x="1366" 
d="M-3 0l563 1466h209l600 -1466h-221l-171 444h-613l-161 -444h-206zM420 602h497l-153 406q-65 170 -104 304q-29 -143 -79 -280zM379 1556v205h188v-205h-188zM752 1556v205h188v-205h-188z" />
    <glyph glyph-name="Aring" unicode="&#xc5;" horiz-adv-x="1366" 
d="M-3 0l563 1466h209l600 -1466h-221l-171 444h-613l-161 -444h-206zM420 602h497l-153 406q-65 170 -104 304q-29 -143 -79 -280zM481 1601q0 73 53 126q55 53 127 53q75 0 127 -54q53 -53 53 -129q0 -77 -53 -130t-126 -53q-75 0 -128 53q-53 55 -53 134zM557 1600
q0 -48 31 -79q32 -32 75 -32q42 0 74 32t32 77q0 46 -31 77q-32 32 -75 32t-75 -32q-31 -31 -31 -75z" />
    <glyph glyph-name="AE" unicode="&#xc6;" horiz-adv-x="2048" 
d="M1 0l705 1466h1203v-173h-737v-451h685v-172h-685v-497h764v-173h-959v423h-566l-200 -423h-210zM493 595h484v698h-145z" />
    <glyph glyph-name="Ccedilla" unicode="&#xc7;" horiz-adv-x="1479" 
d="M1204 514l194 -49q-62 -240 -220 -365t-387 -125q-233 0 -382.5 94.5t-229.5 281.5q-77 184 -77 393q0 230 87 399q88 170 249 259q163 89 356 89q221 0 370 -112q151 -113 209 -315l-191 -45q-50 158 -146.5 232t-245.5 74q-169 0 -283 -81q-112 -81 -159 -218
q-46 -135 -46 -281q0 -191 56 -329t168 -206q116 -69 249 -69q165 0 277.5 95t151.5 278zM620 -154l52 177h134l-33 -107q81 -9 126 -50.5t45 -96.5q0 -75 -72 -132q-71 -58 -217 -58q-83 0 -144 12l11 117q57 -4 94 -4q94 0 132 26q29 20 29 49q-4 22 -11.5 33t-43 22
t-102.5 12z" />
    <glyph glyph-name="Egrave" unicode="&#xc8;" horiz-adv-x="1366" 
d="M162 0v1466h1060v-173h-866v-449h811v-172h-811v-499h900v-173h-1094zM850 1556h-145l-231 280h241z" />
    <glyph glyph-name="Eacute" unicode="&#xc9;" horiz-adv-x="1366" 
d="M162 0v1466h1060v-173h-866v-449h811v-172h-811v-499h900v-173h-1094zM562 1556l133 280h236l-220 -280h-149z" />
    <glyph glyph-name="Ecircumflex" unicode="&#xca;" horiz-adv-x="1366" 
d="M162 0v1466h1060v-173h-866v-449h811v-172h-811v-499h900v-173h-1094zM707 1726l-113 -170h-206l216 280h192l225 -280h-204z" />
    <glyph glyph-name="Edieresis" unicode="&#xcb;" horiz-adv-x="1366" 
d="M162 0v1466h1060v-173h-866v-449h811v-172h-811v-499h900v-173h-1094zM425 1556v205h188v-205h-188zM798 1556v205h188v-205h-188z" />
    <glyph glyph-name="Igrave" unicode="&#xcc;" horiz-adv-x="569" 
d="M191 0v1466h194v-1466h-194zM430 1556h-145l-231 280h241z" />
    <glyph glyph-name="Iacute" unicode="&#xcd;" horiz-adv-x="569" 
d="M191 0v1466h194v-1466h-194zM141 1556l133 280h236l-220 -280h-149z" />
    <glyph glyph-name="Icircumflex" unicode="&#xce;" horiz-adv-x="569" 
d="M191 0v1466h194v-1466h-194zM287 1726l-113 -170h-206l216 280h192l225 -280h-204z" />
    <glyph glyph-name="Idieresis" unicode="&#xcf;" horiz-adv-x="569" 
d="M191 0v1466h194v-1466h-194zM4 1556v205h188v-205h-188zM377 1556v205h188v-205h-188z" />
    <glyph glyph-name="Eth" unicode="&#xd0;" horiz-adv-x="1479" 
d="M158 0v667h-161v132h161v667h506q170 0 260 -21q127 -29 215 -105q231 -195 231 -599q0 -223 -71 -386q-70 -160 -170 -234q-97 -72 -228 -104q-73 -17 -214 -17h-529zM352 173h313q145 0 228 27q82 27 130 75q147 147 147 468q0 171 -39 275q-37 102 -100 165
q-62 62 -138 86q-77 24 -233 24h-308v-494h404v-132h-404v-494z" />
    <glyph glyph-name="Ntilde" unicode="&#xd1;" horiz-adv-x="1479" 
d="M156 0v1466h199l770 -1151v1151h186v-1466h-199l-770 1152v-1152h-186zM430 1556q-2 104 57 166q57 62 146 62q62 0 169 -54q59 -30 94 -30q33 0 49.5 18.5t23.5 68.5h130q-3 -111 -56 -169.5t-140 -58.5q-62 0 -166 56q-67 36 -98 36q-34 0 -55 -24q-23 -24 -21 -71
h-133z" />
    <glyph glyph-name="Ograve" unicode="&#xd2;" horiz-adv-x="1593" 
d="M99 714q0 366 196 571q197 207 506 207q203 0 366 -97q162 -97 248 -271t86 -393q0 -223 -90 -399t-255 -267q-165 -90 -356 -90q-207 0 -370 100t-247 273q-84 172 -84 366zM299 711q0 -266 142 -418q143 -152 358 -152q219 0 360 154q142 154 142 437
q0 180 -60.5 313.5t-177.5 205.5q-116 74 -261 74q-207 0 -355 -142q-148 -141 -148 -472zM916 1556h-145l-231 280h241z" />
    <glyph glyph-name="Oacute" unicode="&#xd3;" horiz-adv-x="1593" 
d="M99 714q0 366 196 571q197 207 506 207q203 0 366 -97q162 -97 248 -271t86 -393q0 -223 -90 -399t-255 -267q-165 -90 -356 -90q-207 0 -370 100t-247 273q-84 172 -84 366zM299 711q0 -266 142 -418q143 -152 358 -152q219 0 360 154q142 154 142 437
q0 180 -60.5 313.5t-177.5 205.5q-116 74 -261 74q-207 0 -355 -142q-148 -141 -148 -472zM677 1556l133 280h236l-220 -280h-149z" />
    <glyph glyph-name="Ocircumflex" unicode="&#xd4;" horiz-adv-x="1593" 
d="M99 714q0 366 196 571q197 207 506 207q203 0 366 -97q162 -97 248 -271t86 -393q0 -223 -90 -399t-255 -267q-165 -90 -356 -90q-207 0 -370 100t-247 273q-84 172 -84 366zM299 711q0 -266 142 -418q143 -152 358 -152q219 0 360 154q142 154 142 437
q0 180 -60.5 313.5t-177.5 205.5q-116 74 -261 74q-207 0 -355 -142q-148 -141 -148 -472zM798 1726l-113 -170h-206l216 280h192l225 -280h-204z" />
    <glyph glyph-name="Otilde" unicode="&#xd5;" horiz-adv-x="1593" 
d="M99 714q0 366 196 571q197 207 506 207q203 0 366 -97q162 -97 248 -271t86 -393q0 -223 -90 -399t-255 -267q-165 -90 -356 -90q-207 0 -370 100t-247 273q-84 172 -84 366zM299 711q0 -266 142 -418q143 -152 358 -152q219 0 360 154q142 154 142 437
q0 180 -60.5 313.5t-177.5 205.5q-116 74 -261 74q-207 0 -355 -142q-148 -141 -148 -472zM466 1556q-2 104 57 166q57 62 146 62q62 0 169 -54q59 -30 94 -30q33 0 49.5 18.5t23.5 68.5h130q-3 -111 -56 -169.5t-140 -58.5q-62 0 -166 56q-67 36 -98 36q-34 0 -55 -24
q-23 -24 -21 -71h-133z" />
    <glyph glyph-name="Odieresis" unicode="&#xd6;" horiz-adv-x="1593" 
d="M99 714q0 366 196 571q197 207 506 207q203 0 366 -97q162 -97 248 -271t86 -393q0 -223 -90 -399t-255 -267q-165 -90 -356 -90q-207 0 -370 100t-247 273q-84 172 -84 366zM299 711q0 -266 142 -418q143 -152 358 -152q219 0 360 154q142 154 142 437
q0 180 -60.5 313.5t-177.5 205.5q-116 74 -261 74q-207 0 -355 -142q-148 -141 -148 -472zM516 1556v205h188v-205h-188zM889 1556v205h188v-205h-188z" />
    <glyph glyph-name="multiply" unicode="&#xd7;" horiz-adv-x="1196" 
d="M161 409l315 315l-314 314l122 122l314 -314l313 313l120 -121l-312 -313l314 -314l-122 -122l-314 314l-315 -315z" />
    <glyph glyph-name="Oslash" unicode="&#xd8;" horiz-adv-x="1593" 
d="M1250 1332l168 188l99 -84l-176 -198q86 -128 116 -224q40 -124 40 -282q0 -226 -91 -401q-92 -177 -256 -266q-164 -90 -349 -90q-137 0 -250 39q-87 30 -201 115l-168 -188l-99 84l176 197q-98 150 -131 254q-33 106 -33 254q0 226 90 402t252 268q163 91 362 91
q133 0 234 -36q102 -35 217 -123zM1130 1197q-96 74 -165 101q-71 27 -165 27q-219 0 -362 -149t-143 -443q0 -118 22 -206q17 -69 67 -165zM1212 1094l-743 -832q74 -61 142 -88q85 -33 184 -33q218 0 360 154t142 432q0 209 -85 367z" />
    <glyph glyph-name="Ugrave" unicode="&#xd9;" horiz-adv-x="1479" 
d="M1120 1466h194v-847q0 -219 -50 -351q-49 -128 -181 -212q-131 -81 -342 -81q-408 0 -524 276q-56 136 -56 368v847h194v-846q0 -189 35 -282q36 -89 122 -139q86 -49 212 -49q214 0 305 97t91 373v846zM854 1556h-145l-231 280h241z" />
    <glyph glyph-name="Uacute" unicode="&#xda;" horiz-adv-x="1479" 
d="M1120 1466h194v-847q0 -219 -50 -351q-49 -128 -181 -212q-131 -81 -342 -81q-408 0 -524 276q-56 136 -56 368v847h194v-846q0 -189 35 -282q36 -89 122 -139q86 -49 212 -49q214 0 305 97t91 373v846zM614 1556l133 280h236l-220 -280h-149z" />
    <glyph glyph-name="Ucircumflex" unicode="&#xdb;" horiz-adv-x="1479" 
d="M1120 1466h194v-847q0 -219 -50 -351q-49 -128 -181 -212q-131 -81 -342 -81q-408 0 -524 276q-56 136 -56 368v847h194v-846q0 -189 35 -282q36 -89 122 -139q86 -49 212 -49q214 0 305 97t91 373v846zM736 1726l-113 -170h-206l216 280h192l225 -280h-204z" />
    <glyph glyph-name="Udieresis" unicode="&#xdc;" horiz-adv-x="1479" 
d="M1120 1466h194v-847q0 -219 -50 -351q-49 -128 -181 -212q-131 -81 -342 -81q-408 0 -524 276q-56 136 -56 368v847h194v-846q0 -189 35 -282q36 -89 122 -139q86 -49 212 -49q214 0 305 97t91 373v846zM454 1556v205h188v-205h-188zM827 1556v205h188v-205h-188z" />
    <glyph glyph-name="Yacute" unicode="&#xdd;" horiz-adv-x="1366" 
d="M571 0v621l-565 845h236l289 -442q87 -137 149 -248q67 118 160 259l284 431h226l-585 -845v-621h-194zM555 1556l133 280h236l-220 -280h-149z" />
    <glyph glyph-name="Thorn" unicode="&#xde;" horiz-adv-x="1366" 
d="M158 0v1466h194v-298h359q143 0 224 -14q109 -19 181.5 -70t116.5 -141q44 -93 44 -200q0 -185 -119 -316q-118 -129 -430 -129h-376v-298h-194zM352 471h379q188 0 267 70t79 196q0 90 -46 156.5t-122 87.5q-51 14 -182 14h-375v-524z" />
    <glyph glyph-name="germandbls" unicode="&#xdf;" horiz-adv-x="1251" 
d="M153 0v999q0 182 44 281q45 99 149 155t234 56q173 0 272 -87q99 -86 99 -200q0 -52 -18.5 -106t-63.5 -134q-44 -75 -58 -112q-12 -32 -12 -55q0 -32 22 -63q23 -34 121 -97q135 -87 181 -143q64 -76 64 -182q0 -139 -103 -238q-102 -99 -262 -99q-127 0 -221 67
q-96 69 -142 174l155 72q48 -89 97.5 -127t107.5 -38q77 0 130 52q54 53 54 122q0 55 -32 96q-23 28 -112 88q-166 113 -205 171q-40 56 -40 117q0 40 13 79q12 36 65 128q50 84 68 132q16 42 16 78q0 63 -55 109q-54 48 -145 48q-107 0 -175 -66t-68 -286v-991h-180z" />
    <glyph glyph-name="agrave" unicode="&#xe0;" 
d="M828 131q-101 -86 -193 -120q-93 -35 -198 -35q-175 0 -269 85t-94 219q0 115 73.5 196t184.5 109q52 13 160 27q215 25 321 62q1 25 1 47q0 110 -51 155q-68 61 -205 61q-126 0 -188 -45q-60 -44 -89 -157l-176 24q24 115 79.5 184t158.5 105q105 38 241 38
q254 0 346 -113q39 -46 56 -122q9 -46 9 -166v-240q0 -247 11 -318q12 -67 46 -127h-188q-28 55 -36 131zM813 533q-94 -39 -294 -68q-110 -16 -157 -36q-45 -19 -71 -59q-25 -37 -25 -85q0 -75 56 -121.5t158 -46.5q104 0 185 45.5t119 124.5q29 63 29 180v66zM685 1194
h-145l-231 280h241z" />
    <glyph glyph-name="aacute" unicode="&#xe1;" 
d="M828 131q-101 -86 -193 -120q-93 -35 -198 -35q-175 0 -269 85t-94 219q0 115 73.5 196t184.5 109q52 13 160 27q215 25 321 62q1 25 1 47q0 110 -51 155q-68 61 -205 61q-126 0 -188 -45q-60 -44 -89 -157l-176 24q24 115 79.5 184t158.5 105q105 38 241 38
q254 0 346 -113q39 -46 56 -122q9 -46 9 -166v-240q0 -247 11 -318q12 -67 46 -127h-188q-28 55 -36 131zM813 533q-94 -39 -294 -68q-110 -16 -157 -36q-45 -19 -71 -59q-25 -37 -25 -85q0 -75 56 -121.5t158 -46.5q104 0 185 45.5t119 124.5q29 63 29 180v66zM463 1194
l133 280h236l-220 -280h-149z" />
    <glyph glyph-name="acircumflex" unicode="&#xe2;" 
d="M828 131q-101 -86 -193 -120q-93 -35 -198 -35q-175 0 -269 85t-94 219q0 115 73.5 196t184.5 109q52 13 160 27q215 25 321 62q1 25 1 47q0 110 -51 155q-68 61 -205 61q-126 0 -188 -45q-60 -44 -89 -157l-176 24q24 115 79.5 184t158.5 105q105 38 241 38
q254 0 346 -113q39 -46 56 -122q9 -46 9 -166v-240q0 -247 11 -318q12 -67 46 -127h-188q-28 55 -36 131zM813 533q-94 -39 -294 -68q-110 -16 -157 -36q-45 -19 -71 -59q-25 -37 -25 -85q0 -75 56 -121.5t158 -46.5q104 0 185 45.5t119 124.5q29 63 29 180v66zM566 1364
l-113 -170h-206l216 280h192l225 -280h-204z" />
    <glyph glyph-name="atilde" unicode="&#xe3;" 
d="M828 131q-101 -86 -193 -120q-93 -35 -198 -35q-175 0 -269 85t-94 219q0 115 73.5 196t184.5 109q52 13 160 27q215 25 321 62q1 25 1 47q0 110 -51 155q-68 61 -205 61q-126 0 -188 -45q-60 -44 -89 -157l-176 24q24 115 79.5 184t158.5 105q105 38 241 38
q254 0 346 -113q39 -46 56 -122q9 -46 9 -166v-240q0 -247 11 -318q12 -67 46 -127h-188q-28 55 -36 131zM813 533q-94 -39 -294 -68q-110 -16 -157 -36q-45 -19 -71 -59q-25 -37 -25 -85q0 -75 56 -121.5t158 -46.5q104 0 185 45.5t119 124.5q29 63 29 180v66zM229 1219
q-2 104 57 166q57 62 146 62q62 0 169 -54q59 -30 94 -30q33 0 49.5 18.5t23.5 68.5h130q-3 -111 -56 -169.5t-140 -58.5q-62 0 -166 56q-67 36 -98 36q-34 0 -55 -24q-23 -24 -21 -71h-133z" />
    <glyph glyph-name="adieresis" unicode="&#xe4;" 
d="M828 131q-101 -86 -193 -120q-93 -35 -198 -35q-175 0 -269 85t-94 219q0 115 73.5 196t184.5 109q52 13 160 27q215 25 321 62q1 25 1 47q0 110 -51 155q-68 61 -205 61q-126 0 -188 -45q-60 -44 -89 -157l-176 24q24 115 79.5 184t158.5 105q105 38 241 38
q254 0 346 -113q39 -46 56 -122q9 -46 9 -166v-240q0 -247 11 -318q12 -67 46 -127h-188q-28 55 -36 131zM813 533q-94 -39 -294 -68q-110 -16 -157 -36q-45 -19 -71 -59q-25 -37 -25 -85q0 -75 56 -121.5t158 -46.5q104 0 185 45.5t119 124.5q29 63 29 180v66zM283 1270
v205h188v-205h-188zM656 1270v205h188v-205h-188z" />
    <glyph glyph-name="aring" unicode="&#xe5;" 
d="M828 131q-101 -86 -193 -120q-93 -35 -198 -35q-175 0 -269 85t-94 219q0 115 73.5 196t184.5 109q52 13 160 27q215 25 321 62q1 25 1 47q0 110 -51 155q-68 61 -205 61q-126 0 -188 -45q-60 -44 -89 -157l-176 24q24 115 79.5 184t158.5 105q105 38 241 38
q254 0 346 -113q39 -46 56 -122q9 -46 9 -166v-240q0 -247 11 -318q12 -67 46 -127h-188q-28 55 -36 131zM813 533q-94 -39 -294 -68q-110 -16 -157 -36q-45 -19 -71 -59q-25 -37 -25 -85q0 -75 56 -121.5t158 -46.5q104 0 185 45.5t119 124.5q29 63 29 180v66zM383 1338
q0 73 53 126q55 53 127 53q75 0 127 -54q53 -53 53 -129q0 -77 -53 -130t-126 -53q-75 0 -128 53q-53 55 -53 134zM459 1337q0 -48 31 -79q32 -32 75 -32q42 0 74 32t32 77q0 46 -31 77q-32 32 -75 32t-75 -32q-31 -31 -31 -75z" />
    <glyph glyph-name="ae" unicode="&#xe6;" horiz-adv-x="1821" 
d="M1734 325q-51 -168 -171 -258.5t-297 -90.5q-127 0 -222.5 48t-172.5 150q-104 -102 -210.5 -150t-229.5 -48q-173 0 -268 88q-95 89 -95 216q0 87 49 161q49 76 138 115q86 38 283 64q143 19 252 49q1 17 1 41q0 126 -53 176q-52 51 -183 51q-175 0 -236 -81
q-27 -36 -47 -123l-175 21q29 120 80 185q52 68 151 108q98 39 229 39q166 0 269 -50q58 -28 99 -93q66 72 147.5 107.5t193.5 35.5q162 0 268 -79q105 -77 155 -207q49 -128 49 -254q0 -5 -2 -61h-767q1 -144 35 -209q36 -67 107 -109q73 -43 162 -43q103 0 174.5 59
t98.5 166zM969 633h584q-14 154 -88 229t-200 75q-125 0 -207 -80q-80 -80 -89 -224zM793 533q-78 -34 -322 -73q-109 -16 -153 -51q-59 -47 -59 -123q0 -70 53 -120q52 -48 154 -48q114 0 200 57q87 58 112 142q15 53 15 216z" />
    <glyph glyph-name="ccedilla" unicode="&#xe7;" horiz-adv-x="1024" 
d="M828 389l177 -23q-29 -183 -149 -287q-118 -103 -293 -103q-218 0 -351 142q-132 142 -132 409q0 175 58 303t172 191q118 65 254 65q173 0 283 -87.5t141 -248.5l-175 -27q-24 106 -87.5 160.5t-154.5 54.5q-135 0 -221 -98q-85 -97 -85 -308q0 -214 82 -311t214 -97
q109 0 179 66.5t88 198.5zM411 -134l52 177h134l-33 -107q81 -9 126 -50.5t45 -96.5q0 -75 -72 -132q-71 -58 -217 -58q-83 0 -144 12l11 117q57 -4 94 -4q94 0 132 26q29 20 29 49q-4 22 -11.5 33t-43 22t-102.5 12z" />
    <glyph glyph-name="egrave" unicode="&#xe8;" 
d="M862 342l186 -23q-45 -165 -164.5 -254t-302.5 -89q-233 0 -370 143q-136 143 -136 403q0 268 138 416t358 148q213 0 348 -145t135 -408q0 -27 -1 -48h-792q10 -175 99 -268q88 -93 222 -93q201 0 280 218zM271 633h593q-12 133 -68 201q-86 104 -223 104
q-123 0 -209 -83q-84 -83 -93 -222zM686 1194h-145l-231 280h241z" />
    <glyph glyph-name="eacute" unicode="&#xe9;" 
d="M862 342l186 -23q-45 -165 -164.5 -254t-302.5 -89q-233 0 -370 143q-136 143 -136 403q0 268 138 416t358 148q213 0 348 -145t135 -408q0 -27 -1 -48h-792q10 -175 99 -268q88 -93 222 -93q201 0 280 218zM271 633h593q-12 133 -68 201q-86 104 -223 104
q-123 0 -209 -83q-84 -83 -93 -222zM465 1194l133 280h236l-220 -280h-149z" />
    <glyph glyph-name="ecircumflex" unicode="&#xea;" 
d="M862 342l186 -23q-45 -165 -164.5 -254t-302.5 -89q-233 0 -370 143q-136 143 -136 403q0 268 138 416t358 148q213 0 348 -145t135 -408q0 -27 -1 -48h-792q10 -175 99 -268q88 -93 222 -93q201 0 280 218zM271 633h593q-12 133 -68 201q-86 104 -223 104
q-123 0 -209 -83q-84 -83 -93 -222zM567 1364l-113 -170h-206l216 280h192l225 -280h-204z" />
    <glyph glyph-name="edieresis" unicode="&#xeb;" 
d="M862 342l186 -23q-45 -165 -164.5 -254t-302.5 -89q-233 0 -370 143q-136 143 -136 403q0 268 138 416t358 148q213 0 348 -145t135 -408q0 -27 -1 -48h-792q10 -175 99 -268q88 -93 222 -93q201 0 280 218zM271 633h593q-12 133 -68 201q-86 104 -223 104
q-123 0 -209 -83q-84 -83 -93 -222zM284 1270v205h188v-205h-188zM657 1270v205h188v-205h-188z" />
    <glyph glyph-name="igrave" unicode="&#xec;" horiz-adv-x="569" 
d="M198 0v1062h180v-1062h-180zM411 1194h-145l-231 280h241z" />
    <glyph glyph-name="iacute" unicode="&#xed;" horiz-adv-x="569" 
d="M198 0v1062h180v-1062h-180zM189 1194l133 280h236l-220 -280h-149z" />
    <glyph glyph-name="icircumflex" unicode="&#xee;" horiz-adv-x="569" 
d="M198 0v1062h180v-1062h-180zM292 1364l-113 -170h-206l216 280h192l225 -280h-204z" />
    <glyph glyph-name="idieresis" unicode="&#xef;" horiz-adv-x="569" 
d="M198 0v1062h180v-1062h-180zM9 1270v205h188v-205h-188zM382 1270v205h188v-205h-188z" />
    <glyph glyph-name="eth" unicode="&#xf0;" 
d="M308 1466h217q75 -56 125 -102l214 102l45 -102l-172 -83q320 -368 320 -760q0 -254 -139 -400q-140 -146 -354 -146q-255 0 -398 194q-93 127 -93 348q0 261 129 403t323 142q59 0 102 -12t110 -47q-34 70 -63 113q-31 47 -79 100l-275 -127l-44 103l239 109
q-97 90 -207 165zM870 529q0 193 -91 293q-90 102 -222 102q-129 0 -215 -102q-85 -100 -85 -310q0 -194 87 -292q89 -98 219 -98q129 0 217 103q90 104 90 304z" />
    <glyph glyph-name="ntilde" unicode="&#xf1;" 
d="M135 0v1062h162v-151q117 175 338 175q95 0 176 -35q80 -34 121 -90q39 -53 56 -133q10 -47 10 -175v-653h-180v646q0 110 -21 164q-21 56 -75 87q-52 33 -125 33q-116 0 -199 -73q-83 -74 -83 -277v-580h-180zM262 1219q-2 104 57 166q57 62 146 62q62 0 169 -54
q59 -30 94 -30q33 0 49.5 18.5t23.5 68.5h130q-3 -111 -56 -169.5t-140 -58.5q-62 0 -166 56q-67 36 -98 36q-34 0 -55 -24q-23 -24 -21 -71h-133z" />
    <glyph glyph-name="ograve" unicode="&#xf2;" 
d="M68 531q0 294 164 437q136 118 334 118q218 0 358 -144q139 -142 139 -396q0 -204 -62 -323q-62 -118 -179 -182q-118 -65 -256 -65q-223 0 -361 143q-137 143 -137 412zM253 531q0 -203 89 -306q89 -101 224 -101q134 0 223 102q89 103 89 311q0 197 -90 298
q-88 102 -222 102q-135 0 -224 -101t-89 -305zM687 1194h-145l-231 280h241z" />
    <glyph glyph-name="oacute" unicode="&#xf3;" 
d="M68 531q0 294 164 437q136 118 334 118q218 0 358 -144q139 -142 139 -396q0 -204 -62 -323q-62 -118 -179 -182q-118 -65 -256 -65q-223 0 -361 143q-137 143 -137 412zM253 531q0 -203 89 -306q89 -101 224 -101q134 0 223 102q89 103 89 311q0 197 -90 298
q-88 102 -222 102q-135 0 -224 -101t-89 -305zM466 1194l133 280h236l-220 -280h-149z" />
    <glyph glyph-name="ocircumflex" unicode="&#xf4;" 
d="M68 531q0 294 164 437q136 118 334 118q218 0 358 -144q139 -142 139 -396q0 -204 -62 -323q-62 -118 -179 -182q-118 -65 -256 -65q-223 0 -361 143q-137 143 -137 412zM253 531q0 -203 89 -306q89 -101 224 -101q134 0 223 102q89 103 89 311q0 197 -90 298
q-88 102 -222 102q-135 0 -224 -101t-89 -305zM568 1364l-113 -170h-206l216 280h192l225 -280h-204z" />
    <glyph glyph-name="otilde" unicode="&#xf5;" 
d="M68 531q0 294 164 437q136 118 334 118q218 0 358 -144q139 -142 139 -396q0 -204 -62 -323q-62 -118 -179 -182q-118 -65 -256 -65q-223 0 -361 143q-137 143 -137 412zM253 531q0 -203 89 -306q89 -101 224 -101q134 0 223 102q89 103 89 311q0 197 -90 298
q-88 102 -222 102q-135 0 -224 -101t-89 -305zM231 1219q-2 104 57 166q57 62 146 62q62 0 169 -54q59 -30 94 -30q33 0 49.5 18.5t23.5 68.5h130q-3 -111 -56 -169.5t-140 -58.5q-62 0 -166 56q-67 36 -98 36q-34 0 -55 -24q-23 -24 -21 -71h-133z" />
    <glyph glyph-name="odieresis" unicode="&#xf6;" 
d="M68 531q0 294 164 437q136 118 334 118q218 0 358 -144q139 -142 139 -396q0 -204 -62 -323q-62 -118 -179 -182q-118 -65 -256 -65q-223 0 -361 143q-137 143 -137 412zM253 531q0 -203 89 -306q89 -101 224 -101q134 0 223 102q89 103 89 311q0 197 -90 298
q-88 102 -222 102q-135 0 -224 -101t-89 -305zM285 1270v205h188v-205h-188zM658 1270v205h188v-205h-188z" />
    <glyph glyph-name="divide" unicode="&#xf7;" horiz-adv-x="1124" 
d="M459 922v205h205v-205h-205zM1046 639h-968v168h968v-168zM459 319v205h205v-205h-205z" />
    <glyph glyph-name="oslash" unicode="&#xf8;" horiz-adv-x="1251" 
d="M919 999l99 128l96 -70l-107 -138q64 -87 86 -156q31 -99 31 -233q0 -300 -169 -441q-137 -113 -330 -113q-159 0 -281 80l-105 -135l-94 71l108 141q-58 67 -84 136q-40 108 -40 247q0 302 147 435q147 135 345 135q80 0 149 -20.5t149 -66.5zM818 867q-91 70 -191 70
q-133 0 -223 -102t-90 -304q0 -151 52 -251zM893 770l-449 -583q78 -63 176 -63q139 0 229 102q91 101 91 306q0 76 -12 133q-7 40 -35 105z" />
    <glyph glyph-name="ugrave" unicode="&#xf9;" 
d="M831 0v156q-125 -180 -337 -180q-94 0 -176 36q-80 36 -121 90q-39 55 -55 134q-11 55 -11 168v658h180v-589q0 -138 11 -190q17 -71 72 -111.5t136 -40.5t152 41q72 43 100 113q30 72 30 208v569h180v-1062h-161zM728 1194h-145l-231 280h241z" />
    <glyph glyph-name="uacute" unicode="&#xfa;" 
d="M831 0v156q-125 -180 -337 -180q-94 0 -176 36q-80 36 -121 90q-39 55 -55 134q-11 55 -11 168v658h180v-589q0 -138 11 -190q17 -71 72 -111.5t136 -40.5t152 41q72 43 100 113q30 72 30 208v569h180v-1062h-161zM453 1194l133 280h236l-220 -280h-149z" />
    <glyph glyph-name="ucircumflex" unicode="&#xfb;" 
d="M831 0v156q-125 -180 -337 -180q-94 0 -176 36q-80 36 -121 90q-39 55 -55 134q-11 55 -11 168v658h180v-589q0 -138 11 -190q17 -71 72 -111.5t136 -40.5t152 41q72 43 100 113q30 72 30 208v569h180v-1062h-161zM564 1364l-113 -170h-206l216 280h192l225 -280h-204z
" />
    <glyph glyph-name="udieresis" unicode="&#xfc;" 
d="M831 0v156q-125 -180 -337 -180q-94 0 -176 36q-80 36 -121 90q-39 55 -55 134q-11 55 -11 168v658h180v-589q0 -138 11 -190q17 -71 72 -111.5t136 -40.5t152 41q72 43 100 113q30 72 30 208v569h180v-1062h-161zM281 1270v205h188v-205h-188zM654 1270v205h188v-205
h-188z" />
    <glyph glyph-name="yacute" unicode="&#xfd;" horiz-adv-x="1024" 
d="M127 -409l-20 169q57 -16 103 -16q106 0 155 76q18 30 55 134q1 3 16 44l-403 1064h194l221 -615q40 -107 77 -246q33 130 74 242l227 619h180l-404 -1080q-63 -171 -101 -241q-48 -89 -110 -130.5t-148 -41.5q-53 0 -116 22zM420 1194l133 280h236l-220 -280h-149z" />
    <glyph glyph-name="thorn" unicode="&#xfe;" 
d="M135 -407v1873h180v-516q74 77 128 102q71 34 164 34q136 0 240 -70t157 -198q53 -129 53 -279q0 -162 -59 -294q-58 -130 -170 -200q-111 -69 -233 -69q-83 0 -154 33q-53 25 -126 101v-517h-180zM298 525q0 -205 83 -303t201 -98q119 0 205 101q86 103 86 315
q0 204 -84 304q-83 101 -199 101t-204 -108q-88 -106 -88 -312z" />
    <glyph glyph-name="ydieresis" unicode="&#xff;" horiz-adv-x="1024" 
d="M127 -409l-20 169q57 -16 103 -16q106 0 155 76q18 30 55 134q1 3 16 44l-403 1064h194l221 -615q40 -107 77 -246q33 130 74 242l227 619h180l-404 -1080q-63 -171 -101 -241q-48 -89 -110 -130.5t-148 -41.5q-53 0 -116 22zM243 1270v205h188v-205h-188zM616 1270v205
h188v-205h-188z" />
    <glyph glyph-name="dotlessi" unicode="&#x131;" horiz-adv-x="569" 
d="M198 0v1062h180v-1062h-180z" />
    <glyph glyph-name="OE" unicode="&#x152;" horiz-adv-x="2048" 
d="M1983 173v-173h-862v212q-135 -237 -400 -237q-302 0 -456 232q-136 205 -136 528q0 322 142 539t450 217q264 0 400 -223v198h831v-173h-650v-448h599v-172h-599v-500h681zM720 1334q-100 0 -197 -65q-95 -64 -145 -198q-49 -131 -49 -351q0 -304 115 -446
q116 -143 276 -143q161 0 275 142q115 142 115 472q0 305 -116 447q-115 142 -274 142z" />
    <glyph glyph-name="oe" unicode="&#x153;" horiz-adv-x="1933" 
d="M978 175q-152 -199 -396 -199q-225 0 -363 143q-137 143 -137 399q0 170 58 302q58 133 178 200q120 66 266 66q139 0 240 -58q103 -57 154 -145q65 95 166 149t223 54q220 0 356 -151q136 -150 134 -452h-784q3 -165 92 -263q90 -96 224 -96q100 0 171 56t103 166
l180 -26q-43 -166 -160.5 -255t-296.5 -89q-133 0 -239 52t-169 147zM267 533q0 -185 71 -283q92 -126 239 -126q130 0 221 106q92 107 92 305q0 199 -91 300q-90 103 -222 103q-89 0 -161.5 -50t-110.5 -144q-38 -97 -38 -211zM1080 631h587q-12 150 -92 229
q-79 78 -197 78q-121 0 -204 -82q-84 -84 -94 -225z" />
    <glyph glyph-name="Scaron" unicode="&#x160;" horiz-adv-x="1366" 
d="M92 471l183 16q13 -112 61.5 -181.5t146.5 -113.5q99 -43 225 -43q165 -2 267 71t97 178q0 71 -41 122t-131 85q-62 24 -261 71q-205 50 -283 92q-208 108 -208 319q0 111 63 207q63 98 184 147q123 50 269 50q164 0 288.5 -53t190.5 -154q67 -102 72 -231l-186 -14
q-30 281 -357 281q-175 0 -257 -65q-80 -65 -80 -155q0 -79 57 -130q55 -51 292 -105q236 -52 325 -93q250 -115 250 -358q0 -118 -67 -221q-67 -102 -193 -161q-125 -57 -282 -57q-391 0 -545 232q-75 115 -80 264zM655 1660l110 170h204l-225 -280h-192l-216 280h206z" />
    <glyph glyph-name="scaron" unicode="&#x161;" horiz-adv-x="1024" 
d="M63 317l178 28q31 -221 275 -221q123 0 184 50q60 51 60 119q0 61 -53 96q-37 23 -184 61q-197 49 -275 86q-76 37 -116 101q-39 65 -39 143q0 70 32 131t89 101q44 32 117 53t153 21q124 0 219 -35.5t140 -98.5q46 -63 62 -164l-176 -24q-12 83 -70.5 128.5t-161.5 45.5
q-124 0 -177 -41t-53 -96q0 -35 22 -63q23 -28 69 -48q23 -9 159 -46q192 -51 266 -84q74 -31 119 -94q43 -61 43 -154q0 -90 -53 -170t-151 -123t-224 -43q-204 0 -314 85t-140 256zM507 1304l110 170h204l-225 -280h-192l-216 280h206z" />
    <glyph glyph-name="Ydieresis" unicode="&#x178;" horiz-adv-x="1366" 
d="M571 0v621l-565 845h236l289 -442q87 -137 149 -248q67 118 160 259l284 431h226l-585 -845v-621h-194zM397 1556v205h188v-205h-188zM770 1556v205h188v-205h-188z" />
    <glyph glyph-name="florin" unicode="&#x192;" 
d="M46 -405l35 155q98 -22 152 -22q55 0 83 28q29 29 45 124l177 1042h-201l24 140h201l24 133q22 120 45 165q65 132 239 132q78 0 215 -38l-35 -153q-103 24 -154 24q-56 0 -84 -28q-27 -26 -47 -132l-19 -103h204l-25 -140h-204l-191 -1092q-26 -148 -87 -204
q-61 -57 -173 -57q-91 0 -224 26z" />
    <glyph glyph-name="circumflex" unicode="&#x2c6;" horiz-adv-x="682" 
d="M344 1364l-113 -170h-206l216 280h192l225 -280h-204z" />
    <glyph glyph-name="caron" unicode="&#x2c7;" horiz-adv-x="682" 
d="M359 1304l110 170h204l-225 -280h-192l-216 280h206z" />
    <glyph glyph-name="breve" unicode="&#x2d8;" horiz-adv-x="682" 
d="M514 1464h123q-15 -125 -91.5 -192t-203.5 -67q-128 0 -204.5 66.5t-91.5 192.5h123q28 -135 167 -135q80 0 122 32t56 103z" />
    <glyph glyph-name="dotaccent" unicode="&#x2d9;" horiz-adv-x="682" 
d="M229 1194v224h223v-224h-223z" />
    <glyph glyph-name="ring" unicode="&#x2da;" horiz-adv-x="682" 
d="M162 1338q0 73 53 126q55 53 127 53q74 0 127 -54q53 -53 53 -129q0 -77 -53 -130t-126 -53q-75 0 -128 53q-53 55 -53 134zM238 1337q0 -48 31 -79q32 -32 75 -32q42 0 74 32t32 77q0 46 -31 77q-32 32 -75 32t-75 -32q-31 -31 -31 -75z" />
    <glyph glyph-name="ogonek" unicode="&#x2db;" horiz-adv-x="682" 
d="M224 24h124q-39 -88 -39 -164q0 -68 40.5 -110t103.5 -42q77 0 168 46v-119q-52 -27 -113 -44t-106 -17q-99 0 -159 60t-60 161q0 85 41 229z" />
    <glyph glyph-name="tilde" unicode="&#x2dc;" horiz-adv-x="682" 
d="M7 1219q-2 104 57 166q57 62 146 62q62 0 169 -54q59 -30 94 -30q33 0 49.5 18.5t23.5 68.5h130q-3 -111 -56 -169.5t-140 -58.5q-62 0 -166 56q-67 36 -98 36q-34 0 -55 -24q-23 -24 -21 -71h-133z" />
    <glyph glyph-name="hungarumlaut" unicode="&#x2dd;" horiz-adv-x="682" 
d="M58 1194l121 280h234l-211 -280h-144zM405 1194l127 280h231l-207 -280h-151z" />
    <glyph glyph-name="pi" unicode="&#x3c0;" horiz-adv-x="1124" 
d="M0 1063h1124v-158h-162v-905h-189v905h-426v-905h-188v905h-159v158z" />
    <glyph glyph-name="endash" unicode="&#x2013;" 
d="M-4 458v145h1139v-145h-1139z" />
    <glyph glyph-name="emdash" unicode="&#x2014;" horiz-adv-x="2048" 
d="M0 458v145h2048v-145h-2048z" />
    <glyph glyph-name="quoteleft" unicode="&#x2018;" horiz-adv-x="455" 
d="M321 1220v-209h-193v165q0 133 32 194q43 81 133 121l44 -70q-56 -24 -81.5 -69.5t-28.5 -131.5h94z" />
    <glyph glyph-name="quoteright" unicode="&#x2019;" horiz-adv-x="455" 
d="M124 1272v209h193v-165q0 -135 -31 -193q-44 -82 -134 -122l-44 71q54 22 80.5 69.5t29.5 130.5h-94z" />
    <glyph glyph-name="quotesinglbase" unicode="&#x201a;" horiz-adv-x="455" 
d="M124 0v209h193v-165q0 -135 -31 -193q-44 -82 -134 -122l-44 71q54 22 80.5 69.5t29.5 130.5h-94z" />
    <glyph glyph-name="quotedblleft" unicode="&#x201c;" horiz-adv-x="682" 
d="M276 1220v-209h-193v165q0 133 32 194q43 81 133 121l44 -70q-56 -24 -81.5 -69.5t-28.5 -131.5h94zM586 1220v-209h-193v165q0 133 32 194q43 81 133 121l44 -70q-56 -24 -81.5 -69.5t-28.5 -131.5h94z" />
    <glyph glyph-name="quotedblright" unicode="&#x201d;" horiz-adv-x="682" 
d="M87 1272v209h193v-165q0 -135 -31 -193q-44 -82 -134 -122l-44 71q54 22 80.5 69.5t29.5 130.5h-94zM397 1272v209h193v-165q0 -135 -31 -193q-44 -82 -134 -122l-44 71q54 22 80.5 69.5t29.5 130.5h-94z" />
    <glyph glyph-name="quotedblbase" unicode="&#x201e;" horiz-adv-x="682" 
d="M87 0v209h193v-165q0 -135 -31 -193q-44 -82 -134 -122l-44 71q54 22 80.5 69.5t29.5 130.5h-94zM397 0v209h193v-165q0 -135 -31 -193q-44 -82 -134 -122l-44 71q54 22 80.5 69.5t29.5 130.5h-94z" />
    <glyph glyph-name="dagger" unicode="&#x2020;" 
d="M472 -346v1212h-399v160h399v406h180v-406h402v-160h-402v-1212h-180z" />
    <glyph glyph-name="daggerdbl" unicode="&#x2021;" 
d="M475 -346v370h-402v161h402v725h-402v161h402v375h180v-375h403v-161h-403v-725h403v-161h-403v-370h-180z" />
    <glyph glyph-name="bullet" unicode="&#x2022;" horiz-adv-x="717" 
d="M109 718q0 105 74 179q76 74 179 74q105 0 179 -74q75 -73 75 -179q0 -105 -75 -180q-74 -74 -179 -74q-103 0 -179 74q-74 76 -74 180z" />
    <glyph glyph-name="ellipsis" unicode="&#x2026;" horiz-adv-x="2048" 
d="M239 0v205h205v-205h-205zM922 0v205h205v-205h-205zM1604 0v205h206v-205h-206z" />
    <glyph glyph-name="perthousand" unicode="&#x2030;" horiz-adv-x="2048" 
d="M320 -54l601 1545h131l-600 -1545h-132zM37 1099q0 199 78 289q79 91 208 91t208 -91q80 -92 80 -285q0 -395 -286 -395q-129 0 -208 93q-80 94 -80 298zM185 1091q0 -153 39 -205q41 -53 105 -53q59 0 91 45q43 59 43 215q0 151 -44 215q-35 47 -94 47q-62 0 -95 -46
q-45 -63 -45 -218zM763 336q0 199 78 289q79 91 207 91q129 0 208 -91q81 -91 81 -285q0 -394 -286 -394q-128 0 -208 92q-80 94 -80 298zM911 328q0 -151 39 -205q41 -53 105 -53q59 0 91 45q43 61 43 215t-45 215q-35 47 -93 47q-62 0 -95 -46q-45 -62 -45 -218zM1437 336
q0 199 78 289q79 91 208 91t208 -91q80 -92 80 -285q0 -197 -70 -295.5t-216 -98.5q-128 0 -208 92q-80 94 -80 298zM1585 328q0 -151 39 -205q41 -53 105 -53q59 0 91 45q43 61 43 215q0 153 -44 215q-35 47 -94 47q-62 0 -95 -46q-45 -62 -45 -218z" />
    <glyph glyph-name="guilsinglleft" unicode="&#x2039;" horiz-adv-x="682" 
d="M291 527l265 -455h-149l-315 455l315 457h149z" />
    <glyph glyph-name="guilsinglright" unicode="&#x203a;" horiz-adv-x="682" 
d="M357 530l-265 454h149l304 -448l-304 -464h-149z" />
    <glyph glyph-name="fraction" unicode="&#x2044;" horiz-adv-x="342" 
d="M-455 -57l1101 1548h157l-1101 -1548h-157z" />
    <glyph glyph-name="trademark" unicode="&#x2122;" horiz-adv-x="2048" 
d="M489 651v694h-264v121h666v-121h-266v-694h-136zM982 651v815h200l206 -651l199 651h196v-815h-124v684l-210 -684h-123l-219 694v-694h-125z" />
    <glyph glyph-name="Omega" unicode="&#x2126;" horiz-adv-x="1573" 
d="M496 160q-109 68 -165 130q-181 200 -181 512q0 198 79 360q79 164 231 253q151 88 348 88q336 0 516 -254q131 -187 131 -448q0 -312 -195 -520q-51 -56 -149 -121l364 6v-166h-575v177q82 42 124 78q107 91 165 229.5t58 292.5q0 136 -50 277q-49 140 -150 213
q-100 73 -243 73q-191 0 -296 -120q-146 -170 -146 -440q0 -218 91 -373q92 -156 251 -227v-180h-577v168z" />
    <glyph glyph-name="partialdiff" unicode="&#x2202;" horiz-adv-x="1012" 
d="M426 1138l-135 60q71 158 168 225q98 68 192 68q76 0 137 -40q62 -39 93 -90q92 -153 92 -435q0 -288 -87 -513q-86 -224 -233 -331q-148 -107 -289 -107q-138 0 -223 91t-85 256q0 226 153 387q197 207 649 215q-4 167 -24 256q-19 88 -68 135q-48 48 -113 48
q-62 0 -121 -50q-60 -51 -106 -175zM854 796q-243 -13 -358 -68q-114 -55 -187 -177q-73 -121 -73 -248q0 -83 51 -137t119 -54q75 0 160 55q240 155 288 629z" />
    <glyph glyph-name="product" unicode="&#x220f;" horiz-adv-x="1686" 
d="M161 1491h1362v-1922h-191v1748h-978v-1748h-193v1922z" />
    <glyph glyph-name="summation" unicode="&#x2211;" horiz-adv-x="1460" 
d="M139 1491h1237v-164h-988l607 -775l-649 -822h1040v-161h-1264v187l620 788l-603 772v175z" />
    <glyph glyph-name="radical" unicode="&#x221a;" horiz-adv-x="1124" 
d="M1050 1869h74l-312 -1947l-496 1021l-198 -91l-34 64l301 151l405 -823z" />
    <glyph glyph-name="infinity" unicode="&#x221e;" horiz-adv-x="1460" 
d="M689 812q104 131 164 174q79 58 169 58q105 0 196 -76q92 -77 92 -245q0 -119 -34 -186q-35 -68 -106 -108q-73 -41 -148 -41q-90 0 -169 57q-61 45 -164 175q-137 -171 -289 -171q-101 0 -174 76q-72 77 -72 191t72 190q74 77 174 77q152 0 289 -171zM758 717
q88 -136 159 -185q46 -33 103 -33q76 0 127 56q52 55 52 158q0 106 -53 162t-130 56q-49 0 -92 -28q-58 -38 -166 -186zM620 716q-78 98 -128 128q-49 29 -92 29q-59 0 -97 -41.5t-38 -112.5t40 -114q41 -42 97 -42q101 0 218 153z" />
    <glyph glyph-name="integral" unicode="&#x222b;" horiz-adv-x="561" 
d="M201 948l17 531q9 152 50 254q26 62 72.5 96t94.5 34q50 0 87 -34q38 -33 38 -73q0 -47 -26 -75.5t-66 -28.5q-36 0 -76 36q-23 20 -40 20q-40 0 -40 -64q0 -41 9 -145q37 -404 37 -665q0 -83 -16 -588q-8 -296 -90 -399q-54 -67 -134 -67q-52 0 -85 34t-33 87
q0 45 25.5 72t64.5 27q40 0 69 -32t49 -32q39 0 39 61q0 42 -9 120q-37 311 -37 831z" />
    <glyph glyph-name="approxequal" unicode="&#x2248;" horiz-adv-x="1124" 
d="M51 738v205q107 120 278 120q59 0 125 -17q60 -15 189 -70q70 -30 103 -39q37 -8 70 -8q65 0 134 39q69 38 124 98v-212q-64 -60 -129.5 -87t-147.5 -27q-62 0 -114 13q-50 12 -173 67q-118 54 -198 54q-65 0 -121 -28q-57 -27 -140 -108zM51 376v205q107 120 278 120
q59 0 125 -17q60 -15 189 -70q73 -30 103 -38q34 -9 70 -9q65 0 134 39q69 38 124 98v-212q-64 -60 -129.5 -87t-147.5 -27q-58 0 -114 14q-50 12 -173 67q-120 53 -198 53q-65 0 -121 -28q-57 -27 -140 -108z" />
    <glyph glyph-name="notequal" unicode="&#x2260;" horiz-adv-x="1124" 
d="M495 417l-194 -445h-136l195 445h-282v168h356l122 277h-478v168h551l196 444h134l-195 -444h282v-168h-356l-121 -277h477v-168h-551z" />
    <glyph glyph-name="lessequal" unicode="&#x2264;" horiz-adv-x="1124" 
d="M77 762v168l971 410v-180l-770 -315l770 -319v-179zM1046 106h-968v167h968v-167z" />
    <glyph glyph-name="greaterequal" unicode="&#x2265;" horiz-adv-x="1124" 
d="M1048 762l-971 -415v179l769 319l-769 315v180l971 -410v-168zM1046 106h-968v167h968v-167z" />
    <glyph glyph-name="lozenge" unicode="&#x25ca;" horiz-adv-x="1012" 
d="M549 1422l418 -713l-418 -709h-111l-391 709l391 713h111zM495 1325l-340 -616l340 -615l359 615z" />
    <glyph glyph-name="CR" unicode="&#xe000;" horiz-adv-x="569" 
 />
    <glyph glyph-name="NULL" unicode="&#xe001;" horiz-adv-x="0" 
 />
    <glyph glyph-name="increment" unicode="&#xe002;" horiz-adv-x="1253" 
d="M1226 0h-1200l628 1387zM990 82l-399 967l-440 -967h839z" />
    </font>
</defs>
</svg>
