<?xml version="1.0" standalone="no"?>
<!DOCTYPE svg PUBLIC "-//W3C//DTD SVG 1.1//EN" "http://www.w3.org/Graphics/SVG/1.1/DTD/svg11.dtd" >
<svg xmlns="http://www.w3.org/2000/svg" xmlns:xlink="http://www.w3.org/1999/xlink" version="1.1">
<metadata>
Created by FontForge 20170731 at Thu Jan  1 09:20:05 1970
 By Aleksey,,,
Typeface (c) The Monotype Corporation plc. Data (c) The Monotype Corporation plc/Type Solutions Inc. 1990-1992. All Rights Reserved
</metadata>
<defs>
<font id="Arial-ItalicMT" horiz-adv-x="1139" >
  <font-face 
    font-family="Arial"
    font-weight="400"
    font-style="italic"
    font-stretch="normal"
    units-per-em="2048"
    panose-1="2 11 6 4 2 2 2 9 2 4"
    ascent="1638"
    descent="-410"
    x-height="1062"
    cap-height="1466"
    bbox="-536 -431 2174 1869"
    underline-thickness="150"
    underline-position="-442"
    slope="-12"
    unicode-range="U+0020-FB02"
  />
<missing-glyph horiz-adv-x="1536" 
d="M256 0v1280h1024v-1280h-1024zM288 32h960v1216h-960v-1216z" />
    <glyph glyph-name="fi" unicode="fi" horiz-adv-x="1024" 
d="M111 0l193 922h-163l29 140h163l31 150q25 116 43 152q61 127 248 127q93 0 197 -29l-33 -158q-96 31 -158 31q-70 0 -100 -66q-6 -15 -25 -101l-22 -106h204l-29 -140h-204l-193 -922h-181zM891 1254l44 212h181l-44 -212h-181zM629 0l222 1062h181l-222 -1062h-181z
" />
    <glyph glyph-name="fl" unicode="fl" horiz-adv-x="1024" 
d="M111 0l193 922h-163l29 140h163l31 150q25 116 43 152q61 127 248 127q93 0 197 -29l-33 -158q-96 31 -158 31q-70 0 -100 -66q-6 -15 -25 -101l-22 -106h201l-29 -140h-201l-193 -922h-181zM629 0l306 1466h181l-306 -1466h-181z" />
    <glyph glyph-name=".notdef" horiz-adv-x="1536" 
d="M256 0v1280h1024v-1280h-1024zM288 32h960v1216h-960v-1216z" />
    <glyph glyph-name=".null" horiz-adv-x="0" 
 />
    <glyph glyph-name="nonmarkingreturn" horiz-adv-x="682" 
 />
    <glyph glyph-name="space" unicode=" " horiz-adv-x="569" 
 />
    <glyph glyph-name="exclam" unicode="!" horiz-adv-x="569" 
d="M229 370l111 796l63 300h219l-68 -325l-212 -771h-113zM115 0l43 205h204l-43 -205h-204z" />
    <glyph glyph-name="quotedbl" unicode="&#x22;" horiz-adv-x="727" 
d="M277 947l12 274l52 245h206l-53 -245l-105 -274h-112zM608 947l12 274l52 245h206l-53 -245l-105 -274h-112z" />
    <glyph glyph-name="numbersign" unicode="#" 
d="M177 -25l87 426h-169v149h199l74 363h-273v149h303l87 429h150l-87 -429h315l87 429h151l-87 -429h173v-149h-203l-75 -363h278v-149h-308l-87 -426h-150l86 426h-314l-87 -426h-150zM444 550h314l75 363h-315z" />
    <glyph glyph-name="dollar" unicode="$" 
d="M454 -13q-146 30 -243 148t-106 289l182 11q9 -117 61.5 -193t136.5 -106l116 553q-120 52 -171 94q-73 58 -112.5 138t-39.5 165q0 158 129 279q130 122 320 122q17 0 40 -1l16 78h100l-19 -91q275 -68 309 -361l-173 -9q-14 90 -53.5 142.5t-113.5 78.5l-105 -503
q201 -82 277 -181q76 -97 76 -218q0 -113 -68 -228t-178 -167q-112 -53 -256 -53q-16 0 -28 1l-36 -171h-99zM636 861l101 480q-116 8 -200.5 -65t-80.5 -178q0 -76 37 -131q37 -54 143 -106zM692 650l-111 -531q137 -5 227 80q92 86 92 204q0 78 -42 135t-166 112z" />
    <glyph glyph-name="percent" unicode="%" horiz-adv-x="1821" 
d="M286 -54l1211 1545h164l-1206 -1545h-169zM199 1015q0 41 18 126q19 85 55 152q34 65 80 107q87 78 214 78q141 0 213.5 -71.5t72.5 -209.5q0 -117 -49 -243q-48 -129 -133 -188t-202 -59q-269 0 -269 308zM353 982q0 -154 116 -154q66 0 116.5 50.5t78.5 154.5
q30 108 30 185q0 66 -33.5 102.5t-89.5 36.5q-60 0 -108.5 -48t-78.5 -146q-31 -99 -31 -181zM1093 254q0 40 18 126q19 85 55 152q34 65 80 107q87 78 214 78q141 0 213.5 -71.5t72.5 -209.5q0 -117 -49 -243q-48 -129 -133 -188t-202 -59q-269 0 -269 308zM1247 220
q0 -154 116 -154q138 0 195 204q30 108 30 186q0 67 -33.5 103.5t-89.5 36.5q-60 0 -108.5 -48t-78.5 -146q-31 -99 -31 -182z" />
    <glyph glyph-name="ampersand" unicode="&#x26;" horiz-adv-x="1366" 
d="M1016 143q-122 -100 -214 -139q-88 -36 -197 -36q-201 0 -322 117q-122 119 -122 296q0 221 181 366q67 53 204 115q-53 116 -63 154q-14 58 -14 120q0 84 47 170q46 85 133 136q85 49 187 49q142 0 227 -82q87 -82 87 -199q0 -99 -74 -197q-72 -96 -291 -206
q131 -239 252 -389q71 86 139 209l158 -81q-65 -137 -183 -272q60 -77 169 -200l-136 -109q-103 88 -168 178zM719 942q148 75 210 154q44 55 44 110q0 58 -41 99t-98 41q-70 0 -124 -57q-53 -56 -53 -134q0 -94 62 -213zM911 282q-186 242 -291 439q-136 -64 -194 -124
q-81 -84 -81 -195q0 -113 77 -193q78 -78 190 -78q151 0 299 151z" />
    <glyph glyph-name="quotesingle" unicode="'" horiz-adv-x="391" 
d="M260 947l12 274l52 245h206l-53 -245l-105 -274h-112z" />
    <glyph glyph-name="parenleft" unicode="(" horiz-adv-x="682" 
d="M330 -431q-157 342 -157 707q0 242 63 450q66 212 194 413q83 133 275 352h141q-117 -124 -248 -352q-130 -226 -189 -446q-59 -221 -59 -440q0 -332 115 -684h-135z" />
    <glyph glyph-name="parenright" unicode=")" horiz-adv-x="682" 
d="M406 1491q158 -345 158 -706q0 -244 -64 -451q-63 -208 -193 -413q-84 -132 -275 -352h-141q117 128 247 353q130 226 189 445q59 221 59 441q0 332 -115 683h135z" />
    <glyph glyph-name="asterisk" unicode="*" horiz-adv-x="797" 
d="M236 1197l46 142q154 -54 231 -97q-18 170 -20 249h145q-3 -95 -23 -248q105 53 236 96l46 -142q-130 -43 -249 -56q60 -51 172 -189l-120 -85q-56 77 -137 215q-72 -138 -130 -215l-118 85q112 139 166 189q-144 28 -245 56z" />
    <glyph glyph-name="plus" unicode="+" horiz-adv-x="1196" 
d="M583 237v402h-399v168h399v399h170v-399h399v-168h-399v-402h-170z" />
    <glyph glyph-name="comma" unicode="," horiz-adv-x="569" 
d="M111 0l43 205h206l-37 -179q-62 -297 -274 -322l17 79q120 33 157 217h-112z" />
    <glyph glyph-name="hyphen" unicode="-" horiz-adv-x="682" 
d="M95 440l38 181h552l-37 -181h-553z" />
    <glyph glyph-name="period" unicode="." horiz-adv-x="569" 
d="M118 0l43 205h205l-44 -205h-204z" />
    <glyph glyph-name="slash" unicode="/" horiz-adv-x="569" 
d="M-104 -24l788 1515h157l-788 -1515h-157z" />
    <glyph glyph-name="zero" unicode="0" 
d="M145 481q0 188 55 378q54 188 124 307q68 116 141 180q74 66 144.5 96t155.5 30q167 0 280 -125t113 -361q0 -242 -78 -481q-91 -281 -256 -423q-127 -107 -287 -107q-165 0 -279 129q-113 131 -113 377zM320 435q0 -135 45 -211q61 -105 181 -105q105 0 191 95
q124 133 186 392q63 260 63 423q0 158 -61 228q-60 70 -159 70q-150 0 -254 -164q-81 -128 -141 -380q-51 -216 -51 -348z" />
    <glyph glyph-name="one" unicode="1" 
d="M493 0l232 1107q-150 -118 -422 -189l34 164q136 54 266 141q130 86 198 152q40 40 76 97h105l-307 -1472h-182z" />
    <glyph glyph-name="two" unicode="2" 
d="M120 0q29 133 77 219q49 89 132 168q85 82 316 267q136 107 194 167q74 77 109 153q23 52 23 111q0 101 -72 171q-71 71 -175 71q-107 0 -182.5 -74t-107.5 -227l-177 26q25 193 151 307q127 113 313 113q126 0 226 -52q103 -53 153 -146q51 -94 51 -194
q0 -145 -104 -281q-64 -84 -376 -331q-136 -108 -200 -174q-65 -68 -98 -128h656l-35 -166h-874z" />
    <glyph glyph-name="three" unicode="3" 
d="M112 384l176 22q20 -150 87 -218.5t181 -68.5q134 0 231 96q98 96 98 220q0 108 -73 178q-74 71 -196 71q-19 0 -58 -4l31 151q23 -4 50 -4q155 0 238 75q84 76 84 186q0 101 -69 170q-68 69 -167 69q-96 0 -175 -71q-77 -71 -99 -199l-178 36q43 180 169 280
q124 99 296 99q181 0 291 -109q112 -109 112 -268q0 -232 -242 -346q171 -101 171 -288q0 -197 -148 -342q-147 -144 -352 -144q-199 0 -322 111q-123 114 -136 298z" />
    <glyph glyph-name="four" unicode="4" 
d="M612 0l79 374h-598l38 179l821 913h148l-195 -932h206l-33 -160h-206l-79 -374h-181zM724 534l128 612l-546 -612h418z" />
    <glyph glyph-name="five" unicode="5" 
d="M143 419l184 18q0 -11 -0.5 -22t-1 -17t-0.5 -8q0 -66 33 -133q34 -67 91 -103q59 -35 122 -35q85 0 171 58q87 59 141 169q54 111 54 220q0 124 -73 197q-72 74 -190 74q-159 0 -281 -152l-158 11l221 750h716l-35 -166h-557l-110 -373q124 90 262 90q168 0 276 -111
t108 -304q0 -169 -74 -312q-74 -142 -204 -219q-128 -76 -279 -76q-125 0 -222.5 57t-146.5 157q-48 101 -48 200q0 17 1 30z" />
    <glyph glyph-name="six" unicode="6" 
d="M412 850q152 126 301 126q167 0 276 -114q109 -113 109 -307q0 -249 -162 -427q-140 -153 -340 -153q-183 0 -304 133t-121 381q0 221 78 457q58 175 145.5 294.5t190.5 176.5q100 55 225 55q151 0 245 -94q95 -93 108 -267l-168 -16q-14 115 -65.5 170t-132.5 55
q-84 0 -165 -65t-139 -185q-59 -123 -81 -220zM349 412q0 -123 77 -209q76 -84 174 -84q68 0 144 51q77 53 129 157q53 106 53 209q0 134 -74 214q-74 81 -177 81q-120 0 -223 -118q-103 -116 -103 -301z" />
    <glyph glyph-name="seven" unicode="7" 
d="M297 0q24 147 102 356q94 253 244 498q151 248 336 426h-731l35 166h936l-34 -166q-236 -206 -416 -539q-206 -379 -283 -741h-189z" />
    <glyph glyph-name="eight" unicode="8" 
d="M462 806q-80 44 -122 114t-42 153q0 133 96 246q128 153 347 153q192 0 304 -104q111 -103 111 -253q0 -231 -248 -330q88 -55 126 -117q49 -80 49 -189q0 -196 -140 -351q-139 -154 -371 -154q-185 0 -302 114t-117 285q0 160 83 276t226 157zM476 1065q0 -95 61 -152
t166 -57q125 0 201 75q78 77 78 186q0 93 -61 151q-61 59 -166 59q-80 0 -147 -37t-100 -101q-32 -64 -32 -124zM335 358q-4 -96 69 -169t187 -70q147 0 238 138q72 108 72 233q0 103 -67 167q-67 65 -174 65q-136 0 -231 -101q-94 -100 -94 -263z" />
    <glyph glyph-name="nine" unicode="9" 
d="M138 336l170 17q32 -227 196 -227q104 0 193 90q132 134 193 379q-94 -70 -162 -97q-72 -29 -144 -29q-134 0 -240 90q-140 117 -140 336q0 248 162 425q140 152 341 152q182 0 302 -135q120 -133 120 -380q0 -238 -80 -472q-94 -273 -257 -404q-131 -106 -297 -106
q-152 0 -249 94q-96 95 -108 267zM379 916q0 -138 73 -220t175 -82q77 0 150.5 52t125.5 151q53 103 53 209q0 85 -35.5 156.5t-95.5 107.5q-59 37 -122 37q-124 0 -226 -126q-48 -59 -74 -143q-24 -80 -24 -142z" />
    <glyph glyph-name="colon" unicode=":" horiz-adv-x="569" 
d="M296 857l43 205h204l-42 -205h-205zM117 0l43 205h205l-44 -205h-204z" />
    <glyph glyph-name="semicolon" unicode=";" horiz-adv-x="569" 
d="M290 857l43 205h204l-43 -205h-204zM111 0l43 205h206l-37 -179q-62 -297 -274 -322l17 79q120 33 157 217h-112z" />
    <glyph glyph-name="less" unicode="&#x3c;" horiz-adv-x="1196" 
d="M184 641v168l971 410v-179l-770 -316l770 -319v-179z" />
    <glyph glyph-name="equal" unicode="=" horiz-adv-x="1196" 
d="M1152 862h-968v168h968v-168zM1152 417h-968v168h968v-168z" />
    <glyph glyph-name="greater" unicode="&#x3e;" horiz-adv-x="1196" 
d="M1155 641l-971 -415v179l769 319l-769 316v179l971 -410v-168z" />
    <glyph glyph-name="question" unicode="?" 
d="M429 367q11 93 41 161q32 73 96 145q36 41 179 156q143 117 182 185q42 70 42 131q0 80 -67 140q-65 61 -171 61q-113 0 -190 -72q-74 -70 -100 -239l-181 30q43 214 166 320q124 106 300 106q122 0 220 -49q101 -50 151 -134q51 -85 51 -176q0 -111 -74 -212
q-55 -76 -247 -229q-131 -107 -171 -166q-39 -58 -56 -158h-171zM340 0l43 205h205l-43 -205h-205z" />
    <glyph glyph-name="at" unicode="@" horiz-adv-x="2079" 
d="M1161 163q-67 -77 -147.5 -121.5t-159.5 -44.5q-93 0 -176 54t-134 158q-52 107 -52 237q0 159 81 318q83 161 203 240q122 80 235 80q89 0 167.5 -46.5t134.5 -137.5l34 155h179l-144 -671q-30 -140 -30 -155q0 -27 20.5 -46.5t49.5 -19.5q54 0 139 61q113 79 180 214
q67 134 67 278q0 166 -86 312q-85 145 -255 232q-169 87 -374 87q-234 0 -428 -110t-300 -314q-106 -203 -106 -438q0 -246 106 -422q106 -177 308 -261q201 -85 447 -85q263 0 439 88q177 88 265 214h181q-51 -105 -175 -214t-295 -172q-170 -64 -412 -64q-225 0 -412 58
t-317 171q-131 113 -199 263q-84 189 -84 408q0 246 100 465q123 273 348 416t543 143q248 0 445 -102q198 -100 312 -302q97 -172 97 -376q0 -290 -204 -515q-181 -202 -398 -202q-132 0 -174 81q-13 25 -19 86zM677 434q0 -136 65 -213q64 -76 149 -76q57 0 119 34t117 99
q57 66 93 167q36 102 36 204q0 135 -68 211q-68 75 -164 75q-129 0 -230 -137q-54 -75 -85 -175q-32 -105 -32 -189z" />
    <glyph glyph-name="A" unicode="A" horiz-adv-x="1366" 
d="M-41 0l831 1466h231l242 -1466h-190l-71 422h-593l-235 -422h-215zM493 573h485l-57 368q-34 224 -41 365q-49 -125 -146 -299z" />
    <glyph glyph-name="B" unicode="B" horiz-adv-x="1366" 
d="M89 0l307 1466h454q127 0 184 -10q200 -35 270 -176q37 -73 37 -162q0 -123 -67.5 -214.5t-202.5 -138.5q117 -38 177 -116t60 -185q0 -122 -70 -232q-69 -111 -184 -172q-114 -60 -255 -60h-710zM461 840h297q209 0 304.5 66.5t95.5 199.5q0 61 -28.5 106t-78.5 66
q-48 21 -182 21h-312zM320 166h334q132 0 179 9q176 30 242 156q33 63 33 132q0 103 -65 156q-64 54 -245 54h-372z" />
    <glyph glyph-name="C" unicode="C" horiz-adv-x="1479" 
d="M1235 516l194 -27q-91 -252 -268 -384q-175 -130 -395 -130q-267 0 -424 163q-156 164 -156 467q0 396 238 655q212 231 527 231q232 0 377 -125q146 -124 168 -336l-183 -17q-29 158 -118.5 237t-234.5 79q-268 0 -435 -239q-144 -206 -144 -489q0 -227 111 -345
q111 -119 289 -119q152 0 275 99q124 100 179 280z" />
    <glyph glyph-name="D" unicode="D" horiz-adv-x="1479" 
d="M91 0l306 1466h442q157 0 243 -23q180 -47 278 -199t98 -377q0 -331 -194 -579q-85 -109 -181 -173q-96 -62 -223 -92q-100 -23 -241 -23h-528zM322 166h232q155 0 279 29q74 18 130 53q70 44 129 119q167 217 167 509q0 178 -62 273q-61 95 -158 127q-72 23 -221 23
h-259z" />
    <glyph glyph-name="E" unicode="E" horiz-adv-x="1366" 
d="M92 0l307 1466h1058l-35 -167h-862l-96 -456h840l-35 -167h-840l-106 -510h923l-35 -166h-1119z" />
    <glyph glyph-name="F" unicode="F" horiz-adv-x="1251" 
d="M93 0l306 1466h953l-35 -167h-757l-97 -467h771l-35 -167h-771l-139 -665h-196z" />
    <glyph glyph-name="G" unicode="G" horiz-adv-x="1593" 
d="M839 578l35 166h642l-125 -597q-120 -76 -276 -124q-155 -48 -305 -48q-321 0 -478 193q-133 163 -133 419q0 263 116 480q116 216 294 320q179 104 395 104q156 0 280 -57q123 -55 190 -151q67 -95 95 -246l-192 -21q-31 151 -128.5 231.5t-250.5 80.5q-159 0 -297 -87
q-139 -86 -221 -261q-82 -173 -82 -396q0 -218 107.5 -332.5t302.5 -114.5q190 0 411 126l66 315h-446z" />
    <glyph glyph-name="H" unicode="H" horiz-adv-x="1479" 
d="M86 0l307 1466h195l-127 -609h760l127 609h196l-306 -1466h-196l144 691h-759l-145 -691h-196z" />
    <glyph glyph-name="I" unicode="I" horiz-adv-x="569" 
d="M117 0l307 1466h195l-306 -1466h-196z" />
    <glyph glyph-name="J" unicode="J" horiz-adv-x="1024" 
d="M83 427l182 13q-16 -83 -16 -125q0 -82 51 -130t140 -48q135 0 195 121q23 44 49 169l218 1039h195l-223 -1071q-46 -224 -157 -323q-109 -97 -281 -97q-181 0 -274.5 83t-93.5 237q0 67 15 132z" />
    <glyph glyph-name="K" unicode="K" horiz-adv-x="1366" 
d="M91 0l306 1466h196l-147 -706l796 706h276l-681 -597l499 -869h-219l-423 743l-307 -267l-100 -476h-196z" />
    <glyph glyph-name="L" unicode="L" 
d="M82 0l306 1466h196l-271 -1300h761l-35 -166h-957z" />
    <glyph glyph-name="M" unicode="M" horiz-adv-x="1706" 
d="M90 0l306 1466h241l148 -950q29 -193 38 -359q60 145 204 401l514 908h245l-306 -1466h-193l153 713q51 240 152 554q-64 -145 -156 -308l-546 -959h-189l-147 940q-20 134 -29 301q-26 -200 -49 -306l-195 -935h-191z" />
    <glyph glyph-name="N" unicode="N" horiz-adv-x="1479" 
d="M100 0l307 1466h190l247 -550q117 -263 179 -424q42 -113 88 -270q26 180 68 382l180 862h191l-306 -1466h-194l-364 847q-95 218 -151 395q-16 -147 -58 -351l-186 -891h-191z" />
    <glyph glyph-name="O" unicode="O" horiz-adv-x="1593" 
d="M187 614q0 393 226 634q227 243 550 243q273 0 446 -179t173 -478q0 -214 -87 -397q-64 -134 -162 -234.5t-214 -155.5q-150 -72 -318 -72q-175 0 -321 84q-144 84 -219 234q-74 153 -74 321zM380 604q0 -132 54.5 -239t158.5 -167q106 -61 223 -61q112 0 214 52.5
t183 149.5q80 95 127 235q47 141 47 275q0 219 -123 349q-121 130 -302 130q-230 0 -406 -197t-176 -527z" />
    <glyph glyph-name="P" unicode="P" horiz-adv-x="1366" 
d="M88 0l307 1466h612q160 0 238 -37q79 -36 132 -125q52 -88 52 -198q0 -92 -37 -185q-37 -94 -94 -155q-98 -106 -238 -138q-141 -33 -285 -33h-367l-124 -595h-196zM443 761h323q189 0 276 40q88 40 141 124q53 83 53 176q0 140 -107 184q-50 22 -196 22h-376z" />
    <glyph glyph-name="Q" unicode="Q" horiz-adv-x="1593" 
d="M1238 118q71 -86 200 -170l-87 -116q-132 86 -239 211q-147 -70 -284 -70q-106 0 -237 41q-127 40 -216 124q-88 84 -137 214.5t-49 287.5q0 192 73 366q60 141 156.5 246.5t215.5 163.5q153 75 331 75q273 0 446 -179t173 -478q0 -219 -92 -408q-92 -186 -254 -308z
M1118 244q121 94 196 258q75 165 75 343q0 221 -122 352t-299 131q-148 0 -285 -87q-136 -85 -219 -253q-82 -165 -82 -364q0 -247 154 -382q120 -105 257 -105q110 0 196 34q-95 85 -187 133l71 122q66 -29 117 -67q51 -36 128 -115z" />
    <glyph glyph-name="R" unicode="R" horiz-adv-x="1479" 
d="M96 0l307 1466h615q183 0 276 -31q94 -30 147 -114q54 -84 54 -212q0 -179 -117 -297t-378 -153q81 -59 121 -116q94 -132 148 -267l112 -276h-219l-105 273q-57 149 -130 256q-50 76 -102 98q-53 24 -169 24h-228l-136 -651h-196zM461 810h271q182 0 245 5
q213 22 292 155q39 66 39 142q0 63 -28.5 111t-76.5 65t-160 17h-478z" />
    <glyph glyph-name="S" unicode="S" horiz-adv-x="1366" 
d="M144 474l192 18l-2 -51q0 -192 168 -265q91 -38 214 -38q176 0 268 77q93 77 93 176q0 70 -49 126q-50 56 -273 152q-176 77 -236 115q-99 65 -146 141.5t-47 174.5q0 115 62.5 205.5t180.5 137.5q120 48 270 48q175 0 299.5 -59t180.5 -161q56 -101 56 -191
q0 -16 -1 -30l-189 -15q0 61 -11 97q-42 125 -178 170q-75 26 -164 26q-160 0 -249 -72q-68 -56 -68 -146q0 -56 29 -98t100 -82q64 -35 247 -115q163 -73 218 -110q166 -110 166 -300q0 -120 -73 -220q-71 -99 -200 -155q-126 -55 -293 -55q-249 0 -407 108
q-156 109 -158 391z" />
    <glyph glyph-name="T" unicode="T" horiz-adv-x="1251" 
d="M465 0l271 1299h-481l35 167h1154l-35 -167h-477l-271 -1299h-196z" />
    <glyph glyph-name="U" unicode="U" horiz-adv-x="1479" 
d="M406 1466h196l-188 -901q-23 -115 -23 -166q0 -118 93 -190t234 -72q112 0 208 51q98 53 153 152q56 102 101 319l169 807h196l-179 -860q-47 -221 -121 -349q-76 -129 -208 -206q-134 -77 -309 -77q-246 -2 -390.5 119t-139.5 308q0 75 41 265z" />
    <glyph glyph-name="V" unicode="V" horiz-adv-x="1366" 
d="M536 0l-282 1466h189l170 -874q48 -248 61 -384q87 177 151 298l523 960h202l-804 -1466h-210z" />
    <glyph glyph-name="W" unicode="W" horiz-adv-x="1933" 
d="M346 0l-90 1466h199l34 -725q2 -32 10 -282q2 -86 2 -90q0 -44 -1 -99q113 233 176 352l446 844h202l49 -857q8 -161 11 -354q20 58 64 152q68 151 108 233l418 826h200l-746 -1466h-210l-49 888q-6 89 -11 280q-62 -140 -102 -216l-508 -952h-202z" />
    <glyph glyph-name="X" unicode="X" horiz-adv-x="1366" 
d="M-65 0l700 741l-415 725h216l189 -332q78 -135 86 -153q25 -49 57 -117q67 91 229 263l322 339h256l-709 -757l402 -709h-213l-238 429q-35 63 -81 162q-51 -69 -132 -155l-409 -436h-260z" />
    <glyph glyph-name="Y" unicode="Y" horiz-adv-x="1366" 
d="M572 0l118 567l-451 899h210l216 -428q71 -140 138 -300q71 133 202 297l344 431h234l-700 -914l-115 -552h-196z" />
    <glyph glyph-name="Z" unicode="Z" horiz-adv-x="1251" 
d="M50 0l19 147l734 877l152 184q63 75 89 103q-97 -11 -130 -11l-48 1l-58 -1l-57 -1h-493l35 167h1011l-17 -153l-787 -935q-168 -199 -184 -217q44 6 57 6h799l-35 -167h-1087z" />
    <glyph glyph-name="bracketleft" unicode="[" horiz-adv-x="569" 
d="M13 -401l385 1867h403l-29 -139h-219l-332 -1589h221l-29 -139h-400z" />
    <glyph glyph-name="backslash" unicode="\" horiz-adv-x="569" 
d="M420 -24l-246 1515h140l246 -1515h-140z" />
    <glyph glyph-name="bracketright" unicode="]" horiz-adv-x="569" 
d="M280 -401h-400l29 139h221l332 1589h-220l29 139h403z" />
    <glyph glyph-name="asciicircum" unicode="^" horiz-adv-x="961" 
d="M329 690h-185l353 801h145l355 -801h-181l-247 597z" />
    <glyph glyph-name="underscore" unicode="_" 
d="M-130 -407v130h1193v-130h-1193z" />
    <glyph glyph-name="grave" unicode="`" horiz-adv-x="682" 
d="M493 1191l-195 275h220l116 -275h-141z" />
    <glyph glyph-name="a" unicode="a" 
d="M784 132q-94 -81 -181.5 -118.5t-185.5 -37.5q-146 0 -237 86q-90 87 -90 222q0 87 39.5 155.5t108.5 111.5q68 42 164 60q58 11 231 19q172 8 245 36q21 74 21 123q0 63 -46 99q-64 50 -184 50q-223 0 -292 -194l-183 16q116 326 484 326q197 0 312 -94q88 -70 88 -182
q0 -87 -25 -197l-59 -264q-28 -124 -28 -205q0 -52 22 -144h-183q-15 52 -21 132zM851 538q-39 -16 -82 -23q-50 -9 -145 -17q-159 -14 -223 -36q-65 -21 -98 -68q-33 -46 -33 -104q0 -78 53.5 -126t148.5 -48q90 0 173 47q84 49 131 133q48 86 75 242z" />
    <glyph glyph-name="b" unicode="b" 
d="M68 0l306 1466h181l-109 -524q86 80 156 111q70 33 146 33q149 0 248 -111q100 -110 100 -323q0 -142 -40 -258q-41 -118 -99 -197q-57 -77 -122 -127q-125 -94 -256 -94q-221 0 -310 225l-42 -201h-159zM336 436l-1 -34q0 -136 65 -207t162 -71q98 0 176.5 68t128.5 206
q51 141 51 260q0 134 -65 208t-159 74q-100 0 -181.5 -77t-135.5 -231q-41 -118 -41 -196z" />
    <glyph glyph-name="c" unicode="c" horiz-adv-x="1024" 
d="M801 387l181 -19q-67 -198 -194 -296q-124 -96 -285 -96q-173 0 -281 112q-107 113 -107 313q0 174 69 342t197 255q128 88 294 88q171 0 271 -97q100 -96 100 -255l-178 -12q-1 100 -58 157.5t-152 57.5q-224 0 -315 -279q-45 -140 -45 -270q0 -136 60 -204t148 -68
q92 0 171.5 69.5t123.5 201.5z" />
    <glyph glyph-name="d" unicode="d" 
d="M784 154q-154 -178 -324 -178q-152 0 -252 111q-100 112 -100 324q0 195 79 354q80 161 199 241q121 80 240 80q198 0 299 -191l120 571h180l-306 -1466h-167zM288 445q0 -112 22 -175t75 -107q53 -42 127 -42q122 0 223 128q134 170 134 420q0 126 -66 197t-166 71
q-66 0 -119.5 -29.5t-105.5 -98.5q-51 -67 -88 -176q-36 -107 -36 -188z" />
    <glyph glyph-name="e" unicode="e" 
d="M848 361l176 -18q-37 -129 -175 -249q-136 -118 -325 -118q-120 0 -218 55.5t-149 157.5q-51 103 -51 237q0 172 80 337q81 163 209 243t277 80q191 0 303 -118q114 -118 114 -322q0 -74 -14 -160h-782q-4 -28 -4 -56q0 -148 68 -228q69 -78 168 -78q94 0 183 61
q91 62 140 176zM322 624h596q1 19 1 40q0 135 -68 208q-67 73 -175 73q-115 0 -212 -80q-95 -80 -142 -241z" />
    <glyph glyph-name="f" unicode="f" horiz-adv-x="569" 
d="M93 0l193 922h-162l29 140h162l31 151q25 116 49 163q26 51 83 82q58 33 157 33q67 0 200 -29l-33 -158q-91 24 -154 24q-52 0 -81 -27q-27 -26 -47 -125l-24 -114h202l-29 -140h-202l-193 -922h-181z" />
    <glyph glyph-name="g" unicode="g" 
d="M58 -96l183 -17q-2 -60 14.5 -91.5t54.5 -49.5q48 -22 127 -22q164 0 236 85q46 57 87 248l18 86q-141 -143 -300 -143q-161 0 -270 118q-108 118 -108 336q0 180 85 329t204 226t243 77q210 0 322 -198l36 174h166l-214 -1025q-34 -167 -92 -263q-57 -94 -159 -147
q-100 -52 -234 -52q-190 -3 -298.5 73t-105.5 202q0 22 5 54zM284 470q0 -108 21 -164q30 -76 85 -117t124 -41q88 0 177 62q87 62 142 194q55 129 55 250q0 132 -73 208q-72 78 -179 78q-137 0 -244 -144q-52 -72 -81 -173q-27 -101 -27 -153z" />
    <glyph glyph-name="h" unicode="h" 
d="M68 0l306 1466h181l-117 -563q100 97 187 140t180 43q132 0 205 -70q73 -69 73 -183q0 -54 -32 -206l-131 -627h-181l135 643q29 142 29 176q0 53 -36.5 85.5t-103.5 32.5q-99 0 -187 -52q-89 -51 -140 -141q-50 -90 -92 -288l-95 -456h-181z" />
    <glyph glyph-name="i" unicode="i" horiz-adv-x="455" 
d="M325 1261l43 205h180l-43 -205h-180zM61 0l222 1062h181l-222 -1062h-181z" />
    <glyph glyph-name="j" unicode="j" horiz-adv-x="455" 
d="M325 1261l43 205h179l-43 -205h-179zM-248 -399l32 154q63 -17 110 -17q58 0 93 39q33 36 71 213l223 1072h181l-230 -1105q-44 -207 -99 -282q-75 -100 -209 -100q-70 0 -172 26z" />
    <glyph glyph-name="k" unicode="k" horiz-adv-x="1024" 
d="M70 0l307 1466h180l-190 -909l528 505h239l-453 -396l274 -666h-198l-212 545l-220 -190l-74 -355h-181z" />
    <glyph glyph-name="l" unicode="l" horiz-adv-x="455" 
d="M54 0l306 1466h181l-306 -1466h-181z" />
    <glyph glyph-name="m" unicode="m" horiz-adv-x="1706" 
d="M67 0l222 1062h181l-37 -175q101 113 180 156t173 43q99 0 165.5 -52.5t87.5 -146.5q162 199 359 199q131 0 198.5 -62.5t67.5 -177.5q0 -47 -23 -162l-143 -684h-181l146 702q19 83 19 123q0 52 -33 82t-93 30q-82 0 -165 -49q-85 -50 -131 -129q-47 -80 -81 -244
l-108 -515h-181l150 717q16 71 16 104q0 52 -32.5 84t-84.5 32q-77 0 -162 -49q-86 -50 -137 -137q-52 -87 -87 -249l-105 -502h-181z" />
    <glyph glyph-name="n" unicode="n" 
d="M68 0l222 1062h164l-39 -185q108 109 201 159t189 50q129 0 202 -70q74 -71 74 -187q0 -56 -26 -186l-135 -643h-181l141 673q21 97 21 145q0 54 -37 86.5t-105 32.5q-139 0 -248 -100q-108 -101 -159 -343l-103 -494h-181z" />
    <glyph glyph-name="o" unicode="o" 
d="M100 403q0 311 183 515q151 168 396 168q192 0 309 -120q118 -119 118 -324q0 -182 -74 -341q-73 -156 -211 -241q-137 -84 -287 -84q-125 0 -226 53.5t-155 149.5q-53 98 -53 224zM281 421q0 -150 72 -228q72 -77 183 -77q116 -5 219.5 94t140.5 243q31 97 31 190
q0 144 -73 223q-72 80 -182 80q-166 0 -282 -159q-56 -79 -83 -182q-26 -106 -26 -184z" />
    <glyph glyph-name="p" unicode="p" 
d="M-21 -407l307 1469h167l-31 -148q92 96 166 134t156 38q152 0 252 -111q100 -109 100 -316q0 -168 -55 -303q-55 -136 -135 -219q-155 -161 -330 -161q-191 0 -296 194l-120 -577h-181zM337 434q0 -117 17 -165q25 -66 82.5 -105.5t131.5 -39.5q156 0 252 175t96 359
q0 134 -65 208t-160 74q-136 0 -238 -146q-50 -73 -83 -177q-33 -105 -33 -183z" />
    <glyph glyph-name="q" unicode="q" 
d="M754 120q-154 -144 -297 -144q-148 0 -250 112t-102 320q0 196 77 358q78 160 198 240q122 80 249 80q99 0 178 -55.5t127 -163.5l41 195h156l-306 -1469h-181zM284 432q0 -156 65 -233q65 -75 162 -75q82 0 165 68q85 68 137 204q54 136 54 263q0 131 -67 204
q-68 74 -164 74q-95 0 -166 -62q-94 -80 -146 -231q-40 -114 -40 -212z" />
    <glyph glyph-name="r" unicode="r" horiz-adv-x="682" 
d="M68 0l222 1062h160l-45 -217q160 241 321 241q54 0 133 -39l-74 -168q-46 34 -103 34q-95 0 -195 -106t-157 -381l-90 -426h-172z" />
    <glyph glyph-name="s" unicode="s" horiz-adv-x="1024" 
d="M85 363l181 11q0 -82 25.5 -135.5t86.5 -87.5q65 -35 151 -35q120 0 180 48t60 113q0 47 -36 89q-37 42 -181 103q-142 61 -183 87q-135 83 -135 224q0 126 100 216t280 90q200 0 304 -93q104 -91 109 -243l-177 -12q-4 97 -68.5 152.5t-180.5 55.5q-94 0 -146 -43
t-52 -93t45 -88q31 -26 155 -80q209 -90 262 -142q86 -83 86 -202q0 -83 -50.5 -158t-146.5 -119q-99 -45 -234 -45q-185 0 -313 91q-129 92 -122 296z" />
    <glyph glyph-name="t" unicode="t" horiz-adv-x="569" 
d="M491 147l-30 -148q-66 -17 -126 -17q-107 0 -172 53q-48 40 -48 109q0 33 26 161l129 617h-143l29 140h143l55 261l207 125l-81 -386h178l-30 -140h-177l-123 -587q-23 -115 -23 -134q0 -66 79 -66q60 0 107 12z" />
    <glyph glyph-name="u" unicode="u" 
d="M793 192q-191 -216 -391 -216q-123 0 -199 70q-75 70 -75 173q0 69 34 230l128 613h181l-142 -679q-18 -85 -18 -132q0 -61 37 -94t107 -33q116 1 215 80t144 206q23 56 51 193l96 459h181l-222 -1062h-167z" />
    <glyph glyph-name="v" unicode="v" horiz-adv-x="1024" 
d="M336 0l-174 1062h176l91 -585q14 -88 37 -313q58 124 133 259l355 639h191l-608 -1062h-201z" />
    <glyph glyph-name="w" unicode="w" horiz-adv-x="1479" 
d="M270 0l-111 1062h174l48 -477l19 -268q3 -60 6 -121q30 102 51 156q23 61 67 156l253 554h197l35 -531q9 -140 10 -323q46 124 163 372l228 482h181l-519 -1062h-188l-40 623q-5 59 -6 226q-35 -91 -97 -231l-281 -618h-190z" />
    <glyph glyph-name="x" unicode="x" horiz-adv-x="1024" 
d="M-3 0l462 539l-265 523h200l90 -189q53 -115 90 -203l306 392h221l-446 -537l268 -525h-200l-106 216q-28 55 -77 171l-316 -387h-227z" />
    <glyph glyph-name="y" unicode="y" horiz-adv-x="1024" 
d="M0 -410l11 170q54 -16 109 -16t89 25q44 33 96 124l58 104l-177 1065h178l80 -537q26 -170 41 -318l475 855h189l-677 -1203q-98 -176 -174 -233q-77 -57 -175 -57q-63 0 -123 21z" />
    <glyph glyph-name="z" unicode="z" horiz-adv-x="1024" 
d="M40 0l29 140l571 643q66 72 136 141q-124 -13 -185 -13h-395l32 151h821l-24 -114l-576 -647q-53 -59 -146 -151q151 9 207 9h418l-33 -159h-855z" />
    <glyph glyph-name="braceleft" unicode="{" horiz-adv-x="684" 
d="M142 612q157 5 227 160q28 60 64 227q38 168 57 227q43 122 99.5 177.5t150.5 79.5q37 8 116 8h56l-34 -157h-31q-85 0 -123 -21q-37 -19 -57 -65q-20 -45 -53 -193q-42 -197 -78 -286q-36 -87 -91 -142q-54 -54 -154 -97q73 -33 107 -90t34 -149q0 -78 -45 -285
q-32 -148 -32 -184q0 -38 15 -60q11 -17 38 -26q27 -10 121 -10l-34 -157h-55q-96 0 -132 13q-124 43 -124 193q0 71 46 286q35 167 35 223q0 160 -158 165z" />
    <glyph glyph-name="bar" unicode="|" horiz-adv-x="532" 
d="M188 -431v1922h157v-1922h-157z" />
    <glyph glyph-name="braceright" unicode="}" horiz-adv-x="684" 
d="M633 612l-35 -163q-76 -2 -133.5 -41t-89.5 -109q-32 -71 -69 -238q-37 -169 -54 -223q-44 -124 -101 -180t-152 -81q-37 -8 -115 -8h-56l34 157h31q85 0 122 21q39 22 61 71q19 43 49 188q39 182 70 262q39 101 99.5 163.5t154.5 98.5q-79 41 -110 93t-31 148
q0 77 45 284q32 148 32 184q0 51 -28 73q-26 22 -115 22h-31l34 157h55q96 0 132 -13q124 -42 124 -193q0 -66 -33 -222q-48 -231 -48 -287q0 -159 158 -164z" />
    <glyph glyph-name="asciitilde" unicode="~" horiz-adv-x="1196" 
d="M164 557v205q106 120 278 120q60 0 126 -18q67 -17 188 -69q73 -30 103 -38q35 -9 70 -9q65 0 134 39q69 38 124 98v-212q-64 -60 -129.5 -87t-147.5 -27q-57 0 -115 14q-50 12 -173 67q-120 53 -197 53q-65 0 -121 -28q-57 -27 -140 -108z" />
    <glyph glyph-name="exclamdown" unicode="&#xa1;" horiz-adv-x="682" 
d="M625 1062l-43 -205h-204l43 205h204zM511 692l-111 -796l-62 -300h-220l68 325l212 771h113z" />
    <glyph glyph-name="cent" unicode="&#xa2;" 
d="M338 27q-184 108 -184 374q0 174 69 342t198 255q128 88 293 88q33 0 61 -4l168 404l106 -45l-161 -389q197 -85 197 -318l-178 -12q-1 120 -82 178l-322 -780q20 -4 42 -4q92 0 171.5 69.5t123.5 201.5l181 -19q-67 -198 -194 -296q-125 -96 -285 -96q-50 0 -94 10
l-163 -393l-108 47zM401 180l314 757h-16q-226 0 -317 -280q-45 -141 -45 -266q0 -141 64 -211z" />
    <glyph glyph-name="sterling" unicode="&#xa3;" 
d="M85 -25l-21 177q108 70 192 164q62 70 90 150q28 78 28 140q0 17 -4 45h-221l31 151h173q-18 135 -18 227q0 195 138 328q140 134 347 134q165 0 283 -97q119 -96 141 -292l-165 -17q-15 126 -84.5 193.5t-176.5 67.5q-124 0 -211 -94q-87 -93 -87 -255q0 -67 20 -195
h290l-32 -151h-251l1 -44q0 -236 -212 -395q50 7 78 7q77 0 127 -8q53 -8 128 -35q83 -27 137 -27q113 0 221 63l54 -163q-153 -74 -267 -74q-46 0 -87 10q-28 7 -103 37q-72 31 -121 41q-52 11 -105 11q-85 0 -154 -21q-68 -21 -159 -78z" />
    <glyph glyph-name="currency" unicode="&#xa4;" 
d="M303 961l-139 136l115 119l139 -139q106 72 237 72q132 0 237 -72l139 139l116 -119l-139 -136q71 -110 71 -235q0 -126 -71 -236l139 -136l-116 -119l-139 140q-104 -73 -237 -73q-131 0 -237 73l-139 -140l-115 119l139 136q-71 110 -71 236q0 125 71 235zM395 726
q0 -108 76 -184t183 -76t183 76t76 184q0 107 -76 183q-75 76 -183 76q-107 0 -183 -76t-76 -183z" />
    <glyph glyph-name="yen" unicode="&#xa5;" 
d="M416 0l68 327h-409l29 138h409l31 147h-409l28 138h344l-273 716h182l116 -315q82 -227 90 -246q26 -73 42 -133q40 92 129 214l349 480h224l-540 -716h334l-29 -138h-406l-31 -147h406l-29 -138h-406l-68 -327h-181z" />
    <glyph glyph-name="brokenbar" unicode="&#xa6;" horiz-adv-x="532" 
d="M345 1491v-790h-157v790h157zM345 360v-791h-157v791h157z" />
    <glyph glyph-name="section" unicode="&#xa7;" 
d="M62 -90l166 42q24 -118 98.5 -183t178.5 -65q100 0 162 58q64 58 64 132q0 62 -52 123q-39 46 -292 249q-102 81 -136 119q-53 58 -75 108.5t-22 114.5q0 109 64 191q65 84 220 161q-79 95 -79 202q0 140 102 234q104 95 287 95q175 0 268 -80.5t121 -258.5l-181 -21
q-1 102 -58.5 158.5t-159.5 56.5q-91 0 -150 -53q-58 -52 -58 -125q0 -52 38 -114q40 -64 186 -181q212 -171 271 -245q58 -71 58 -164q0 -98 -70.5 -187.5t-208.5 -154.5q100 -109 100 -228q0 -130 -108 -227q-107 -98 -292 -98q-174 0 -292 92q-116 91 -150 249zM714 217
q102 47 151 107t49 118q0 44 -22 78q-22 37 -144 137q-168 139 -237 216q-194 -110 -194 -245q0 -42 21 -79q33 -55 146 -146z" />
    <glyph glyph-name="dieresis" unicode="&#xa8;" horiz-adv-x="682" 
d="M237 1227l43 205h189l-43 -205h-189zM606 1227l43 205h188l-42 -205h-189z" />
    <glyph glyph-name="copyright" unicode="&#xa9;" horiz-adv-x="1509" 
d="M838 1491q189 0 371 -98q181 -97 282 -279t101 -378t-100 -375q-99 -179 -279 -280q-179 -99 -375 -99t-376 99q-179 101 -279 280t-100 375t101 378q102 182 283 279q182 98 371 98zM838 1366q-159 0 -310 -82q-149 -80 -235 -233q-85 -151 -85 -315q0 -162 83 -313
q84 -149 234 -233q151 -83 313 -83t313 83q150 84 233 233q83 151 83 313q0 164 -85 315q-85 153 -235 233q-151 82 -309 82zM1080 614l123 -36q-30 -125 -128 -200q-98 -74 -236 -74q-177 0 -286 114q-110 115 -110 316q-3 197 110 313t294 113q131 0 219.5 -63t121.5 -173
l-119 -29q-30 74 -88.5 113.5t-137.5 39.5q-115 0 -190 -82q-74 -83 -74 -235q0 -153 70 -232q71 -78 183 -78q91 0 158 52q68 53 90 141z" />
    <glyph glyph-name="ordfeminine" unicode="&#xaa;" horiz-adv-x="758" 
d="M624 823q-36 -33 -103 -61q-66 -26 -129 -26q-103 0 -165 59q-60 58 -60 146q0 67 35.5 121.5t101.5 80.5q69 29 205 36q107 6 173 22q15 43 15 65q0 44 -37.5 74t-99.5 30q-61 0 -109.5 -30.5t-74.5 -89.5l-141 23q49 108 128 163t199 55q136 0 206 -58t70 -141
q0 -76 -54 -276q-29 -108 -29 -161q0 -58 20 -98h-138q-7 20 -13 66zM655 1087q-51 -15 -165 -26q-110 -11 -144 -39q-36 -29 -36 -70q0 -40 31 -68t78 -28q85 0 148 58.5t88 172.5z" />
    <glyph glyph-name="guillemotleft" unicode="&#xab;" 
d="M350 527l159 -455h-136l-212 477l401 431h143zM745 527l156 -455h-146l-198 479l388 429h155z" />
    <glyph glyph-name="logicalnot" unicode="&#xac;" horiz-adv-x="1196" 
d="M1152 424h-170v438h-798v168h968v-606z" />
    <glyph glyph-name="registered" unicode="&#xae;" horiz-adv-x="1509" 
d="M838 1491q189 0 371 -98q181 -97 282 -279t101 -378t-100 -375q-99 -179 -279 -280q-179 -99 -375 -99t-376 99q-179 101 -279 280t-100 375t101 378q102 182 283 279q182 98 371 98zM838 1366q-159 0 -310 -82q-149 -80 -235 -233q-85 -151 -85 -315q0 -162 83 -313
q84 -149 234 -233q151 -83 313 -83t313 83q150 84 233 233q83 151 83 313q0 164 -85 315q-85 153 -235 233q-151 82 -309 82zM507 319v812h279q141 0 207 -23q65 -22 102 -78q38 -56 38 -119q0 -90 -64 -155q-64 -67 -168 -74q44 -18 69 -43q49 -47 120 -161l99 -159h-160
l-72 128q-86 153 -137 189q-35 28 -105 28h-77v-345h-131zM638 776h159q115 0 155 34q42 34 42 90q0 36 -20 64.5t-56 42.5t-131 14h-149v-245z" />
    <glyph glyph-name="macron" unicode="&#xaf;" horiz-adv-x="682" 
d="M201 1229l29 139h621l-29 -139h-621z" />
    <glyph glyph-name="degree" unicode="&#xb0;" horiz-adv-x="819" 
d="M273 1214q0 115 81 196q82 81 196 81q116 0 197 -81t81 -196t-82 -197q-81 -81 -196 -81q-114 0 -196 81q-81 81 -81 197zM382 1214q0 -71 49 -120t120 -49q69 0 118 49q50 50 50 120q0 69 -50 119t-118 50q-70 0 -120 -50q-49 -49 -49 -119z" />
    <glyph glyph-name="plusminus" unicode="&#xb1;" horiz-adv-x="1124" 
d="M523 260v403h-399v167h399v399h170v-399h399v-167h-399v-403h-170zM1092 0h-968v168h968v-168z" />
    <glyph glyph-name="twosuperior" unicode="&#xb2;" horiz-adv-x="682" 
d="M152 733q32 107 107 190q77 88 251 186q103 58 125 82q35 38 35 79q0 40 -32.5 66.5t-91.5 26.5q-71 0 -110.5 -27.5t-58.5 -86.5l-153 15q62 220 320 220q139 0 207 -61q70 -60 70 -149q0 -82 -60 -149q-43 -48 -194 -139q-82 -48 -123 -79q-32 -25 -54 -53h379
l-25 -121h-592z" />
    <glyph glyph-name="threesuperior" unicode="&#xb3;" horiz-adv-x="682" 
d="M169 930l143 16q45 -111 163 -111q71 0 111.5 35t40.5 90q0 102 -140 102h-41l23 107l33 -1q65 0 115 29t50 84q0 41 -33 68t-90 27t-93 -24.5t-58 -77.5l-147 19q27 89 103 140t194 51q139 0 207 -58q69 -57 69 -139q0 -136 -168 -176q72 -29 102.5 -69.5t30.5 -98.5
q0 -88 -82 -158q-80 -70 -221 -70q-123 0 -205 60q-81 59 -107 155z" />
    <glyph glyph-name="acute" unicode="&#xb4;" horiz-adv-x="682" 
d="M346 1191l188 275h228l-266 -275h-150z" />
    <glyph glyph-name="mu" unicode="&#xb5;" horiz-adv-x="1180" 
d="M323 1062h179l-106 -499q-39 -181 -39 -255q0 -81 53.5 -131t144.5 -50q123 0 209 89q64 67 108 274l120 572h179l-226 -1062h-161l18 84q-136 -109 -266 -109q-73 0 -128.5 29.5t-109.5 95.5l-108 -510h-178z" />
    <glyph glyph-name="paragraph" unicode="&#xb6;" horiz-adv-x="1100" 
d="M546 -407v1045q-187 10 -296 121q-108 113 -108 285q0 193 120 307q121 115 353 115h633v-173h-144v-1700h-170v1700h-223v-1700h-165z" />
    <glyph glyph-name="periodcentered" unicode="&#xb7;" horiz-adv-x="569" 
d="M185 619v205h205v-205h-205z" />
    <glyph glyph-name="cedilla" unicode="&#xb8;" horiz-adv-x="682" 
d="M252 -149l41 161h140l-24 -90q85 -12 132.5 -59.5t47.5 -110.5q0 -72 -61 -115q-89 -62 -281 -62q-97 0 -170 12l22 112q61 -3 146 -3q104 0 136 22q34 22 34 49q0 32 -29 53q-43 30 -134 31z" />
    <glyph glyph-name="onesuperior" unicode="&#xb9;" horiz-adv-x="682" 
d="M419 733l111 532q-104 -72 -251 -102l27 127q76 22 167 76q92 56 141 118h112l-157 -751h-150z" />
    <glyph glyph-name="ordmasculine" unicode="&#xba;" horiz-adv-x="748" 
d="M143 1068q0 80 40 179q41 104 131 173q92 71 216 71q139 0 226 -88q87 -87 87 -224q0 -151 -99 -296t-277 -145q-101 0 -178.5 40.5t-111.5 109.5q-34 68 -34 180zM290 1073q0 -94 32 -138q48 -66 129 -66q59 0 115 38.5t91 112.5q38 81 38 160q0 80 -48 130
q-47 50 -117 50q-61 0 -119 -43t-89 -117q-32 -75 -32 -127z" />
    <glyph glyph-name="guillemotright" unicode="&#xbb;" 
d="M450 521l-148 459h144l192 -483l-392 -425h-163zM841 513l-149 467h136l206 -485l-407 -423h-144z" />
    <glyph glyph-name="onequarter" unicode="&#xbc;" horiz-adv-x="1708" 
d="M171 -61l1396 1552h175l-1409 -1552h-162zM419 733l111 532q-104 -72 -251 -102l27 127q76 22 167 76q92 56 141 118h112l-157 -751h-150zM1361 -35l32 152h-387l25 121l512 478h117l-99 -484h100l-26 -115h-100l-31 -152h-143zM1418 232l64 265l-285 -265h221z" />
    <glyph glyph-name="onehalf" unicode="&#xbd;" horiz-adv-x="1708" 
d="M123 -61l1396 1552h175l-1409 -1552h-162zM419 733l111 532q-104 -72 -251 -102l27 127q76 22 167 76q92 56 141 118h112l-157 -751h-150zM1020 -35q32 107 107 190q77 88 251 186q103 59 124 82q36 37 36 79q0 40 -33 66.5t-91 26.5q-71 0 -111 -27.5t-58 -86.5l-153 15
q62 220 320 220q139 0 207 -61q70 -60 70 -149q0 -82 -61 -149q-42 -48 -194 -139q-77 -45 -122 -79q-32 -25 -54 -53h379l-26 -121h-591z" />
    <glyph glyph-name="threequarters" unicode="&#xbe;" horiz-adv-x="1708" 
d="M201 -61l1396 1552h175l-1409 -1552h-162zM169 930l143 16q45 -111 163 -111q71 0 111.5 35t40.5 90q0 102 -140 102h-41l23 107l33 -1q65 0 115 29t50 84q0 41 -33 68t-90 27t-93 -24.5t-58 -77.5l-147 19q27 89 103 140t194 51q139 0 207 -58q69 -57 69 -139
q0 -136 -168 -176q72 -29 102.5 -69.5t30.5 -98.5q0 -88 -82 -158q-80 -70 -221 -70q-123 0 -205 60q-81 59 -107 155zM1361 -35l32 152h-387l25 121l512 478h117l-99 -484h99l-25 -115h-100l-31 -152h-143zM1418 232l64 265l-285 -265h221z" />
    <glyph glyph-name="questiondown" unicode="&#xbf;" horiz-adv-x="1251" 
d="M980 1062l-43 -205h-205l43 205h205zM891 695q-11 -91 -42 -162t-96 -144q-36 -41 -178 -158q-140 -114 -183 -185q-41 -71 -41 -129q0 -79 66 -141q67 -61 171 -61q245 0 291 312l181 -30q-43 -214 -167 -320q-122 -106 -300 -106q-121 0 -220 49q-100 50 -150 134
q-51 84 -51 176q0 109 74 212q55 75 246 229q132 105 171 165q41 60 57 159h171z" />
    <glyph glyph-name="Agrave" unicode="&#xc0;" horiz-adv-x="1366" 
d="M-41 0l831 1466h231l242 -1466h-190l-71 422h-593l-235 -422h-215zM493 573h485l-57 368q-34 224 -41 365q-49 -125 -146 -299zM990 1557l-195 275h220l116 -275h-141z" />
    <glyph glyph-name="Aacute" unicode="&#xc1;" horiz-adv-x="1366" 
d="M-41 0l831 1466h231l242 -1466h-190l-71 422h-593l-235 -422h-215zM493 573h485l-57 368q-34 224 -41 365q-49 -125 -146 -299zM786 1556l188 275h228l-266 -275h-150z" />
    <glyph glyph-name="Acircumflex" unicode="&#xc2;" horiz-adv-x="1366" 
d="M-41 0l831 1466h231l242 -1466h-190l-71 422h-593l-235 -422h-215zM493 573h485l-57 368q-34 224 -41 365q-49 -125 -146 -299zM595 1556l265 275h200l124 -275h-158l-80 178l-165 -178h-186z" />
    <glyph glyph-name="Atilde" unicode="&#xc3;" horiz-adv-x="1366" 
d="M-41 0l831 1466h231l242 -1466h-190l-71 422h-593l-235 -422h-215zM493 573h485l-57 368q-34 224 -41 365q-49 -125 -146 -299zM579 1553q33 133 81 178q49 46 122 46q30 0 64 -8q28 -7 110 -43q77 -34 107 -34q25 0 42.5 17.5t28.5 61.5h121q-10 -103 -67 -161
q-55 -58 -130 -58q-38 0 -101 26q-138 60 -170 60q-66 0 -83 -85h-125z" />
    <glyph glyph-name="Adieresis" unicode="&#xc4;" horiz-adv-x="1366" 
d="M-41 0l831 1466h231l242 -1466h-190l-71 422h-593l-235 -422h-215zM493 573h485l-57 368q-34 224 -41 365q-49 -125 -146 -299zM617 1556l43 205h189l-43 -205h-189zM986 1556l43 205h188l-42 -205h-189z" />
    <glyph glyph-name="Aring" unicode="&#xc5;" horiz-adv-x="1366" 
d="M-41 0l831 1466h231l242 -1466h-190l-71 422h-593l-235 -422h-215zM493 573h485l-57 368q-34 224 -41 365q-49 -125 -146 -299zM751 1586q0 76 53 129q55 53 129 53q77 0 129 -54q53 -53 53 -128q0 -76 -54 -129q-53 -53 -128 -53q-74 0 -129 53q-53 53 -53 129z
M826 1586q0 -46 31 -77t76 -31t76.5 31.5t31.5 76.5q0 43 -32 75t-76 32t-76 -32q-31 -31 -31 -75z" />
    <glyph glyph-name="AE" unicode="&#xc6;" horiz-adv-x="2048" 
d="M-83 0l902 1466h1318l-35 -167h-756l-95 -456h765l-35 -166h-765l-107 -511h845l-35 -166h-1051l88 418h-566l-250 -418h-223zM491 584h499l150 715h-211z" />
    <glyph glyph-name="Ccedilla" unicode="&#xc7;" horiz-adv-x="1479" 
d="M1235 516l194 -27q-91 -252 -268 -384q-175 -130 -395 -130q-267 0 -424 163q-156 164 -156 467q0 396 238 655q212 231 527 231q232 0 377 -125q146 -124 168 -336l-183 -17q-29 158 -118.5 237t-234.5 79q-268 0 -435 -239q-144 -206 -144 -489q0 -227 111 -345
q111 -119 289 -119q152 0 275 99q124 100 179 280zM552 -155l41 161h140l-24 -90q85 -12 132.5 -59.5t47.5 -110.5q0 -72 -61 -115q-89 -62 -281 -62q-97 0 -170 12l22 112q61 -3 146 -3q104 0 136 22q34 22 34 49q0 32 -29 53q-43 30 -134 31z" />
    <glyph glyph-name="Egrave" unicode="&#xc8;" horiz-adv-x="1366" 
d="M92 0l307 1466h1058l-35 -167h-862l-96 -456h840l-35 -167h-840l-106 -510h923l-35 -166h-1119zM1028 1557l-195 275h220l116 -275h-141z" />
    <glyph glyph-name="Eacute" unicode="&#xc9;" horiz-adv-x="1366" 
d="M92 0l307 1466h1058l-35 -167h-862l-96 -456h840l-35 -167h-840l-106 -510h923l-35 -166h-1119zM745 1556l188 275h228l-266 -275h-150z" />
    <glyph glyph-name="Ecircumflex" unicode="&#xca;" horiz-adv-x="1366" 
d="M92 0l307 1466h1058l-35 -167h-862l-96 -456h840l-35 -167h-840l-106 -510h923l-35 -166h-1119zM613 1556l265 275h200l124 -275h-158l-80 178l-165 -178h-186z" />
    <glyph glyph-name="Edieresis" unicode="&#xcb;" horiz-adv-x="1366" 
d="M92 0l307 1466h1058l-35 -167h-862l-96 -456h840l-35 -167h-840l-106 -510h923l-35 -166h-1119zM656 1553l43 205h189l-43 -205h-189zM1025 1553l43 205h188l-42 -205h-189z" />
    <glyph glyph-name="Igrave" unicode="&#xcc;" horiz-adv-x="569" 
d="M117 0l307 1466h195l-306 -1466h-196zM556 1557l-195 275h220l116 -275h-141z" />
    <glyph glyph-name="Iacute" unicode="&#xcd;" horiz-adv-x="569" 
d="M117 0l307 1466h195l-306 -1466h-196zM381 1556l188 275h228l-266 -275h-150z" />
    <glyph glyph-name="Icircumflex" unicode="&#xce;" horiz-adv-x="569" 
d="M117 0l307 1466h195l-306 -1466h-196zM245 1556l265 275h200l124 -275h-158l-80 178l-165 -178h-186z" />
    <glyph glyph-name="Idieresis" unicode="&#xcf;" horiz-adv-x="569" 
d="M117 0l307 1466h195l-306 -1466h-196zM247 1556l43 205h189l-43 -205h-189zM616 1556l43 205h188l-42 -205h-189z" />
    <glyph glyph-name="Eth" unicode="&#xd0;" horiz-adv-x="1479" 
d="M108 0l141 666h-158l28 134h159l141 666h437q141 0 194 -10q195 -35 306 -183q119 -154 119 -406q0 -329 -194 -579q-85 -111 -181 -173t-223 -92q-100 -23 -242 -23h-527zM339 166h231q155 0 279 29q74 18 130 53q72 46 130 119q166 215 166 509q0 178 -62 273
q-61 95 -157 127q-74 23 -221 23h-256l-106 -499h404l-28 -134h-404z" />
    <glyph glyph-name="Ntilde" unicode="&#xd1;" horiz-adv-x="1479" 
d="M100 0l307 1466h190l247 -550q117 -263 179 -424q42 -113 88 -270q26 180 68 382l180 862h191l-306 -1466h-194l-364 847q-95 218 -151 395q-16 -147 -58 -351l-186 -891h-191zM661 1553q33 133 81 178q49 46 122 46q30 0 64 -8q28 -7 110 -43q77 -34 107 -34
q25 0 42.5 17.5t28.5 61.5h121q-10 -103 -67 -161q-55 -58 -130 -58q-38 0 -101 26q-138 60 -170 60q-66 0 -83 -85h-125z" />
    <glyph glyph-name="Ograve" unicode="&#xd2;" horiz-adv-x="1593" 
d="M187 614q0 393 226 634q227 243 550 243q273 0 446 -179t173 -478q0 -214 -87 -397q-64 -134 -162 -234.5t-214 -155.5q-150 -72 -318 -72q-175 0 -321 84q-144 84 -219 234q-74 153 -74 321zM380 604q0 -132 54.5 -239t158.5 -167q106 -61 223 -61q112 0 214 52.5
t183 149.5q80 95 127 235q47 141 47 275q0 219 -123 349q-121 130 -302 130q-230 0 -406 -197t-176 -527zM1044 1557l-195 275h220l116 -275h-141z" />
    <glyph glyph-name="Oacute" unicode="&#xd3;" horiz-adv-x="1593" 
d="M187 614q0 393 226 634q227 243 550 243q273 0 446 -179t173 -478q0 -214 -87 -397q-64 -134 -162 -234.5t-214 -155.5q-150 -72 -318 -72q-175 0 -321 84q-144 84 -219 234q-74 153 -74 321zM380 604q0 -132 54.5 -239t158.5 -167q106 -61 223 -61q112 0 214 52.5
t183 149.5q80 95 127 235q47 141 47 275q0 219 -123 349q-121 130 -302 130q-230 0 -406 -197t-176 -527zM821 1556l188 275h228l-266 -275h-150z" />
    <glyph glyph-name="Ocircumflex" unicode="&#xd4;" horiz-adv-x="1593" 
d="M187 614q0 393 226 634q227 243 550 243q273 0 446 -179t173 -478q0 -214 -87 -397q-64 -134 -162 -234.5t-214 -155.5q-150 -72 -318 -72q-175 0 -321 84q-144 84 -219 234q-74 153 -74 321zM380 604q0 -132 54.5 -239t158.5 -167q106 -61 223 -61q112 0 214 52.5
t183 149.5q80 95 127 235q47 141 47 275q0 219 -123 349q-121 130 -302 130q-230 0 -406 -197t-176 -527zM665 1556l265 275h200l124 -275h-158l-80 178l-165 -178h-186z" />
    <glyph glyph-name="Otilde" unicode="&#xd5;" horiz-adv-x="1593" 
d="M187 614q0 393 226 634q227 243 550 243q273 0 446 -179t173 -478q0 -214 -87 -397q-64 -134 -162 -234.5t-214 -155.5q-150 -72 -318 -72q-175 0 -321 84q-144 84 -219 234q-74 153 -74 321zM380 604q0 -132 54.5 -239t158.5 -167q106 -61 223 -61q112 0 214 52.5
t183 149.5q80 95 127 235q47 141 47 275q0 219 -123 349q-121 130 -302 130q-230 0 -406 -197t-176 -527zM639 1553q33 133 81 178q49 46 122 46q30 0 64 -8q28 -7 110 -43q77 -34 107 -34q25 0 42.5 17.5t28.5 61.5h121q-10 -103 -67 -161q-55 -58 -130 -58q-38 0 -101 26
q-138 60 -170 60q-66 0 -83 -85h-125z" />
    <glyph glyph-name="Odieresis" unicode="&#xd6;" horiz-adv-x="1593" 
d="M187 614q0 393 226 634q227 243 550 243q273 0 446 -179t173 -478q0 -214 -87 -397q-64 -134 -162 -234.5t-214 -155.5q-150 -72 -318 -72q-175 0 -321 84q-144 84 -219 234q-74 153 -74 321zM380 604q0 -132 54.5 -239t158.5 -167q106 -61 223 -61q112 0 214 52.5
t183 149.5q80 95 127 235q47 141 47 275q0 219 -123 349q-121 130 -302 130q-230 0 -406 -197t-176 -527zM684 1556l43 205h189l-43 -205h-189zM1053 1556l43 205h188l-42 -205h-189z" />
    <glyph glyph-name="multiply" unicode="&#xd7;" horiz-adv-x="1196" 
d="M261 409l315 315l-314 314l122 122l314 -314l313 313l120 -121l-312 -313l314 -314l-122 -122l-314 314l-315 -315z" />
    <glyph glyph-name="Oslash" unicode="&#xd8;" horiz-adv-x="1593" 
d="M341 175q-154 182 -154 465q0 192 73 365q59 141 155.5 246t214.5 164q152 76 329 76q226 0 382 -117l160 192l89 -79l-162 -195q154 -175 154 -463q0 -209 -85 -389q-64 -135 -162.5 -236t-215.5 -157q-150 -72 -318 -72q-212 0 -371 117l-161 -195l-95 79zM462 320
l762 914q-113 94 -260 94q-148 0 -284 -87t-219 -254q-82 -165 -82 -359q0 -184 83 -308zM1306 1145l-760 -914q121 -94 270 -94q112 0 214 52.5t183 149.5q80 95 127 235q47 141 47 275q0 169 -81 296z" />
    <glyph glyph-name="Ugrave" unicode="&#xd9;" horiz-adv-x="1479" 
d="M406 1466h196l-188 -901q-23 -115 -23 -166q0 -118 93 -190t234 -72q112 0 208 51q98 53 153 152q56 102 101 319l169 807h196l-179 -860q-47 -221 -121 -349q-76 -129 -208 -206q-134 -77 -309 -77q-246 -2 -390.5 119t-139.5 308q0 75 41 265zM1009 1557l-195 275h220
l116 -275h-141z" />
    <glyph glyph-name="Uacute" unicode="&#xda;" horiz-adv-x="1479" 
d="M406 1466h196l-188 -901q-23 -115 -23 -166q0 -118 93 -190t234 -72q112 0 208 51q98 53 153 152q56 102 101 319l169 807h196l-179 -860q-47 -221 -121 -349q-76 -129 -208 -206q-134 -77 -309 -77q-246 -2 -390.5 119t-139.5 308q0 75 41 265zM802 1556l188 275h228
l-266 -275h-150z" />
    <glyph glyph-name="Ucircumflex" unicode="&#xdb;" horiz-adv-x="1479" 
d="M406 1466h196l-188 -901q-23 -115 -23 -166q0 -118 93 -190t234 -72q112 0 208 51q98 53 153 152q56 102 101 319l169 807h196l-179 -860q-47 -221 -121 -349q-76 -129 -208 -206q-134 -77 -309 -77q-246 -2 -390.5 119t-139.5 308q0 75 41 265zM674 1556l265 275h200
l124 -275h-158l-80 178l-165 -178h-186z" />
    <glyph glyph-name="Udieresis" unicode="&#xdc;" horiz-adv-x="1479" 
d="M406 1466h196l-188 -901q-23 -115 -23 -166q0 -118 93 -190t234 -72q112 0 208 51q98 53 153 152q56 102 101 319l169 807h196l-179 -860q-47 -221 -121 -349q-76 -129 -208 -206q-134 -77 -309 -77q-246 -2 -390.5 119t-139.5 308q0 75 41 265zM703 1556l43 205h189
l-43 -205h-189zM1072 1556l43 205h188l-42 -205h-189z" />
    <glyph glyph-name="Yacute" unicode="&#xdd;" horiz-adv-x="1366" 
d="M572 0l118 567l-451 899h210l216 -428q71 -140 138 -300q71 133 202 297l344 431h234l-700 -914l-115 -552h-196zM756 1556l188 275h228l-266 -275h-150z" />
    <glyph glyph-name="Thorn" unicode="&#xde;" horiz-adv-x="1366" 
d="M88 0l312 1466l196 -1l-63 -296h411q160 0 238 -37q79 -36 132 -125q52 -88 52 -198q0 -92 -37 -185q-37 -94 -94 -155q-98 -106 -239 -138q-141 -33 -284 -33h-365l-63 -298h-196zM383 464h320q189 0 276 40q88 40 141 124q53 83 53 176q0 140 -108 184q-48 22 -195 22
h-371z" />
    <glyph glyph-name="germandbls" unicode="&#xdf;" horiz-adv-x="1251" 
d="M74 0l216 1033q36 173 94 259q59 87 172 143q114 56 240 56q152 0 240 -75q89 -75 89 -160q0 -50 -27 -110q-25 -59 -105 -160q-77 -100 -97 -139q-19 -37 -19 -70q0 -29 13 -54q13 -23 98 -111q123 -127 148 -177q26 -52 26 -111q0 -82 -51 -166q-50 -84 -146 -133
q-97 -50 -199 -50q-212 0 -354 235l152 82q52 -99 100 -134q50 -35 99 -35q82 0 149 65q66 66 66 141q0 32 -17 63q-16 29 -138 148q-89 88 -111 130q-22 43 -22 85q0 48 30 111q32 65 128 184q97 121 97 188q0 44 -42 79q-43 35 -113 35q-44 0 -94.5 -17.5t-89.5 -45.5
q-76 -55 -109 -150q-9 -26 -30 -127l-212 -1012h-181z" />
    <glyph glyph-name="agrave" unicode="&#xe0;" 
d="M784 132q-94 -81 -181.5 -118.5t-185.5 -37.5q-146 0 -237 86q-90 87 -90 222q0 87 39.5 155.5t108.5 111.5q68 42 164 60q58 11 231 19q172 8 245 36q21 74 21 123q0 63 -46 99q-64 50 -184 50q-223 0 -292 -194l-183 16q116 326 484 326q197 0 312 -94q88 -70 88 -182
q0 -87 -25 -197l-59 -264q-28 -124 -28 -205q0 -52 22 -144h-183q-15 52 -21 132zM851 538q-39 -16 -82 -23q-50 -9 -145 -17q-159 -14 -223 -36q-65 -21 -98 -68q-33 -46 -33 -104q0 -78 53.5 -126t148.5 -48q90 0 173 47q84 49 131 133q48 86 75 242zM766 1191l-195 275
h220l116 -275h-141z" />
    <glyph glyph-name="aacute" unicode="&#xe1;" 
d="M784 132q-94 -81 -181.5 -118.5t-185.5 -37.5q-146 0 -237 86q-90 87 -90 222q0 87 39.5 155.5t108.5 111.5q68 42 164 60q58 11 231 19q172 8 245 36q21 74 21 123q0 63 -46 99q-64 50 -184 50q-223 0 -292 -194l-183 16q116 326 484 326q197 0 312 -94q88 -70 88 -182
q0 -87 -25 -197l-59 -264q-28 -124 -28 -205q0 -52 22 -144h-183q-15 52 -21 132zM851 538q-39 -16 -82 -23q-50 -9 -145 -17q-159 -14 -223 -36q-65 -21 -98 -68q-33 -46 -33 -104q0 -78 53.5 -126t148.5 -48q90 0 173 47q84 49 131 133q48 86 75 242zM555 1191l188 275
h228l-266 -275h-150z" />
    <glyph glyph-name="acircumflex" unicode="&#xe2;" 
d="M784 132q-94 -81 -181.5 -118.5t-185.5 -37.5q-146 0 -237 86q-90 87 -90 222q0 87 39.5 155.5t108.5 111.5q68 42 164 60q58 11 231 19q172 8 245 36q21 74 21 123q0 63 -46 99q-64 50 -184 50q-223 0 -292 -194l-183 16q116 326 484 326q197 0 312 -94q88 -70 88 -182
q0 -87 -25 -197l-59 -264q-28 -124 -28 -205q0 -52 22 -144h-183q-15 52 -21 132zM851 538q-39 -16 -82 -23q-50 -9 -145 -17q-159 -14 -223 -36q-65 -21 -98 -68q-33 -46 -33 -104q0 -78 53.5 -126t148.5 -48q90 0 173 47q84 49 131 133q48 86 75 242zM432 1191l265 275
h200l124 -275h-158l-80 178l-165 -178h-186z" />
    <glyph glyph-name="atilde" unicode="&#xe3;" 
d="M784 132q-94 -81 -181.5 -118.5t-185.5 -37.5q-146 0 -237 86q-90 87 -90 222q0 87 39.5 155.5t108.5 111.5q68 42 164 60q58 11 231 19q172 8 245 36q21 74 21 123q0 63 -46 99q-64 50 -184 50q-223 0 -292 -194l-183 16q116 326 484 326q197 0 312 -94q88 -70 88 -182
q0 -87 -25 -197l-59 -264q-28 -124 -28 -205q0 -52 22 -144h-183q-15 52 -21 132zM851 538q-39 -16 -82 -23q-50 -9 -145 -17q-159 -14 -223 -36q-65 -21 -98 -68q-33 -46 -33 -104q0 -78 53.5 -126t148.5 -48q90 0 173 47q84 49 131 133q48 86 75 242zM431 1223
q33 133 81 178q49 46 122 46q30 0 64 -8q28 -7 110 -43q77 -34 107 -34q25 0 42.5 17.5t28.5 61.5h121q-10 -103 -67 -161q-55 -58 -130 -58q-38 0 -101 26q-138 60 -170 60q-66 0 -83 -85h-125z" />
    <glyph glyph-name="adieresis" unicode="&#xe4;" 
d="M784 132q-94 -81 -181.5 -118.5t-185.5 -37.5q-146 0 -237 86q-90 87 -90 222q0 87 39.5 155.5t108.5 111.5q68 42 164 60q58 11 231 19q172 8 245 36q21 74 21 123q0 63 -46 99q-64 50 -184 50q-223 0 -292 -194l-183 16q116 326 484 326q197 0 312 -94q88 -70 88 -182
q0 -87 -25 -197l-59 -264q-28 -124 -28 -205q0 -52 22 -144h-183q-15 52 -21 132zM851 538q-39 -16 -82 -23q-50 -9 -145 -17q-159 -14 -223 -36q-65 -21 -98 -68q-33 -46 -33 -104q0 -78 53.5 -126t148.5 -48q90 0 173 47q84 49 131 133q48 86 75 242zM446 1227l43 205h189
l-43 -205h-189zM815 1227l43 205h188l-42 -205h-189z" />
    <glyph glyph-name="aring" unicode="&#xe5;" 
d="M784 132q-94 -81 -181.5 -118.5t-185.5 -37.5q-146 0 -237 86q-90 87 -90 222q0 87 39.5 155.5t108.5 111.5q68 42 164 60q58 11 231 19q172 8 245 36q21 74 21 123q0 63 -46 99q-64 50 -184 50q-223 0 -292 -194l-183 16q116 326 484 326q197 0 312 -94q88 -70 88 -182
q0 -87 -25 -197l-59 -264q-28 -124 -28 -205q0 -52 22 -144h-183q-15 52 -21 132zM851 538q-39 -16 -82 -23q-50 -9 -145 -17q-159 -14 -223 -36q-65 -21 -98 -68q-33 -46 -33 -104q0 -78 53.5 -126t148.5 -48q90 0 173 47q84 49 131 133q48 86 75 242zM545 1320
q0 76 53 129q55 53 129 53q77 0 129 -54q53 -53 53 -128q0 -76 -54 -129q-53 -53 -128 -53q-74 0 -129 53q-53 53 -53 129zM620 1320q0 -46 31 -77t76 -31t76.5 31.5t31.5 76.5q0 43 -32 75t-76 32t-76 -32q-31 -31 -31 -75z" />
    <glyph glyph-name="ae" unicode="&#xe6;" horiz-adv-x="1821" 
d="M1530 359l183 -17q-176 -366 -502 -366q-120 0 -219.5 58.5t-162.5 177.5q-76 -119 -182.5 -178t-223.5 -59q-160 0 -248 85t-88 225q0 85 37 154.5t97 105.5q57 35 153 55q56 11 225 25q166 13 238 36q23 74 23 123q0 76 -49 119t-141 43q-224 0 -300 -200l-179 15
q52 157 175.5 241.5t307.5 84.5q217 0 331 -146q139 145 349 145q124 0 220 -56t147 -160q51 -105 51 -227q0 -61 -15 -158h-773q-4 -27 -4 -60q0 -149 66 -226q66 -75 168 -75q93 0 175.5 59t140.5 176zM1019 624h583q1 22 1 43q4 120 -67 201t-173 78q-102 0 -203 -86
t-141 -236zM809 525q-107 -26 -259 -39q-112 -10 -153 -24q-125 -42 -125 -167q0 -81 51 -129.5t143 -48.5q120 0 202 84q106 109 141 324z" />
    <glyph glyph-name="ccedilla" unicode="&#xe7;" horiz-adv-x="1024" 
d="M801 387l181 -19q-67 -198 -194 -296q-124 -96 -285 -96q-173 0 -281 112q-107 113 -107 313q0 174 69 342t197 255q128 88 294 88q171 0 271 -97q100 -96 100 -255l-178 -12q-1 100 -58 157.5t-152 57.5q-224 0 -315 -279q-45 -140 -45 -270q0 -136 60 -204t148 -68
q92 0 171.5 69.5t123.5 201.5zM353 -131l41 161h140l-24 -90q85 -12 132.5 -59.5t47.5 -110.5q0 -72 -61 -115q-89 -62 -281 -62q-97 0 -170 12l22 112q61 -3 146 -3q104 0 136 22q34 22 34 49q0 32 -29 53q-43 30 -134 31z" />
    <glyph glyph-name="egrave" unicode="&#xe8;" 
d="M848 361l176 -18q-37 -129 -175 -249q-136 -118 -325 -118q-120 0 -218 55.5t-149 157.5q-51 103 -51 237q0 172 80 337q81 163 209 243t277 80q191 0 303 -118q114 -118 114 -322q0 -74 -14 -160h-782q-4 -28 -4 -56q0 -148 68 -228q69 -78 168 -78q94 0 183 61
q91 62 140 176zM322 624h596q1 19 1 40q0 135 -68 208q-67 73 -175 73q-115 0 -212 -80q-95 -80 -142 -241zM767 1191l-195 275h220l116 -275h-141z" />
    <glyph glyph-name="eacute" unicode="&#xe9;" 
d="M848 361l176 -18q-37 -129 -175 -249q-136 -118 -325 -118q-120 0 -218 55.5t-149 157.5q-51 103 -51 237q0 172 80 337q81 163 209 243t277 80q191 0 303 -118q114 -118 114 -322q0 -74 -14 -160h-782q-4 -28 -4 -56q0 -148 68 -228q69 -78 168 -78q94 0 183 61
q91 62 140 176zM322 624h596q1 19 1 40q0 135 -68 208q-67 73 -175 73q-115 0 -212 -80q-95 -80 -142 -241zM572 1191l188 275h228l-266 -275h-150z" />
    <glyph glyph-name="ecircumflex" unicode="&#xea;" 
d="M848 361l176 -18q-37 -129 -175 -249q-136 -118 -325 -118q-120 0 -218 55.5t-149 157.5q-51 103 -51 237q0 172 80 337q81 163 209 243t277 80q191 0 303 -118q114 -118 114 -322q0 -74 -14 -160h-782q-4 -28 -4 -56q0 -148 68 -228q69 -78 168 -78q94 0 183 61
q91 62 140 176zM322 624h596q1 19 1 40q0 135 -68 208q-67 73 -175 73q-115 0 -212 -80q-95 -80 -142 -241zM445 1191l265 275h200l124 -275h-158l-80 178l-165 -178h-186z" />
    <glyph glyph-name="edieresis" unicode="&#xeb;" 
d="M848 361l176 -18q-37 -129 -175 -249q-136 -118 -325 -118q-120 0 -218 55.5t-149 157.5q-51 103 -51 237q0 172 80 337q81 163 209 243t277 80q191 0 303 -118q114 -118 114 -322q0 -74 -14 -160h-782q-4 -28 -4 -56q0 -148 68 -228q69 -78 168 -78q94 0 183 61
q91 62 140 176zM322 624h596q1 19 1 40q0 135 -68 208q-67 73 -175 73q-115 0 -212 -80q-95 -80 -142 -241zM447 1227l43 205h189l-43 -205h-189zM816 1227l43 205h188l-42 -205h-189z" />
    <glyph glyph-name="igrave" unicode="&#xec;" horiz-adv-x="569" 
d="M125 0l222 1062h181l-222 -1062h-181zM494 1191l-195 275h220l116 -275h-141z" />
    <glyph glyph-name="iacute" unicode="&#xed;" horiz-adv-x="569" 
d="M125 0l222 1062h181l-222 -1062h-181zM299 1191l188 275h228l-266 -275h-150z" />
    <glyph glyph-name="icircumflex" unicode="&#xee;" horiz-adv-x="569" 
d="M125 0l222 1062h181l-222 -1062h-181zM172 1191l265 275h200l124 -275h-158l-80 178l-165 -178h-186z" />
    <glyph glyph-name="idieresis" unicode="&#xef;" horiz-adv-x="569" 
d="M125 0l222 1062h181l-222 -1062h-181zM174 1227l43 205h189l-43 -205h-189zM543 1227l43 205h188l-42 -205h-189z" />
    <glyph glyph-name="eth" unicode="&#xf0;" 
d="M626 1466h188q31 -28 74 -75l177 75l46 -98l-156 -70q83 -137 123 -274q40 -136 40 -319q0 -209 -84 -388q-82 -179 -207 -261q-123 -81 -292 -81q-199 0 -317 118t-118 317q0 174 76 332q77 160 202 239q128 81 249 81q90 0 165 -31q56 -23 128 -86q-28 145 -106 286
l-228 -100l-48 100l210 95q-69 90 -122 140zM925 633q0 135 -72 210q-71 75 -187 75q-101 0 -186 -60t-139 -182q-56 -127 -56 -260q0 -144 67.5 -219.5t186.5 -75.5q112 0 204 79q95 80 138 208q44 130 44 225z" />
    <glyph glyph-name="ntilde" unicode="&#xf1;" 
d="M68 0l222 1062h164l-39 -185q108 109 201 159t189 50q129 0 202 -70q74 -71 74 -187q0 -56 -26 -186l-135 -643h-181l141 673q21 97 21 145q0 54 -37 86.5t-105 32.5q-139 0 -248 -100q-108 -101 -159 -343l-103 -494h-181zM414 1222q33 133 81 178q49 46 122 46
q30 0 64 -8q28 -7 110 -43q77 -34 107 -34q25 0 42.5 17.5t28.5 61.5h121q-10 -103 -67 -161q-55 -58 -130 -58q-38 0 -101 26q-138 60 -170 60q-66 0 -83 -85h-125z" />
    <glyph glyph-name="ograve" unicode="&#xf2;" 
d="M100 403q0 311 183 515q151 168 396 168q192 0 309 -120q118 -119 118 -324q0 -182 -74 -341q-73 -156 -211 -241q-137 -84 -287 -84q-125 0 -226 53.5t-155 149.5q-53 98 -53 224zM281 421q0 -150 72 -228q72 -77 183 -77q116 -5 219.5 94t140.5 243q31 97 31 190
q0 144 -73 223q-72 80 -182 80q-166 0 -282 -159q-56 -79 -83 -182q-26 -106 -26 -184zM771 1191l-195 275h220l116 -275h-141z" />
    <glyph glyph-name="oacute" unicode="&#xf3;" 
d="M100 403q0 311 183 515q151 168 396 168q192 0 309 -120q118 -119 118 -324q0 -182 -74 -341q-73 -156 -211 -241q-137 -84 -287 -84q-125 0 -226 53.5t-155 149.5q-53 98 -53 224zM281 421q0 -150 72 -228q72 -77 183 -77q116 -5 219.5 94t140.5 243q31 97 31 190
q0 144 -73 223q-72 80 -182 80q-166 0 -282 -159q-56 -79 -83 -182q-26 -106 -26 -184zM536 1191l188 275h228l-266 -275h-150z" />
    <glyph glyph-name="ocircumflex" unicode="&#xf4;" 
d="M100 403q0 311 183 515q151 168 396 168q192 0 309 -120q118 -119 118 -324q0 -182 -74 -341q-73 -156 -211 -241q-137 -84 -287 -84q-125 0 -226 53.5t-155 149.5q-53 98 -53 224zM281 421q0 -150 72 -228q72 -77 183 -77q116 -5 219.5 94t140.5 243q31 97 31 190
q0 144 -73 223q-72 80 -182 80q-166 0 -282 -159q-56 -79 -83 -182q-26 -106 -26 -184zM413 1191l265 275h200l124 -275h-158l-80 178l-165 -178h-186z" />
    <glyph glyph-name="otilde" unicode="&#xf5;" 
d="M100 403q0 311 183 515q151 168 396 168q192 0 309 -120q118 -119 118 -324q0 -182 -74 -341q-73 -156 -211 -241q-137 -84 -287 -84q-125 0 -226 53.5t-155 149.5q-53 98 -53 224zM281 421q0 -150 72 -228q72 -77 183 -77q116 -5 219.5 94t140.5 243q31 97 31 190
q0 144 -73 223q-72 80 -182 80q-166 0 -282 -159q-56 -79 -83 -182q-26 -106 -26 -184zM388 1222q33 133 81 178q49 46 122 46q30 0 64 -8q28 -7 110 -43q77 -34 107 -34q25 0 42.5 17.5t28.5 61.5h121q-10 -103 -67 -161q-55 -58 -130 -58q-38 0 -101 26q-138 60 -170 60
q-66 0 -83 -85h-125z" />
    <glyph glyph-name="odieresis" unicode="&#xf6;" 
d="M100 403q0 311 183 515q151 168 396 168q192 0 309 -120q118 -119 118 -324q0 -182 -74 -341q-73 -156 -211 -241q-137 -84 -287 -84q-125 0 -226 53.5t-155 149.5q-53 98 -53 224zM281 421q0 -150 72 -228q72 -77 183 -77q116 -5 219.5 94t140.5 243q31 97 31 190
q0 144 -73 223q-72 80 -182 80q-166 0 -282 -159q-56 -79 -83 -182q-26 -106 -26 -184zM427 1227l43 205h189l-43 -205h-189zM796 1227l43 205h188l-42 -205h-189z" />
    <glyph glyph-name="divide" unicode="&#xf7;" horiz-adv-x="1124" 
d="M509 922v205h205v-205h-205zM1096 639h-968v168h968v-168zM509 319v205h205v-205h-205z" />
    <glyph glyph-name="oslash" unicode="&#xf8;" horiz-adv-x="1251" 
d="M1043 1018l112 141l91 -72l-117 -147q93 -117 93 -304q0 -178 -73 -334t-210 -242q-137 -84 -288 -84q-136 0 -244 63l-114 -141l-90 69l115 144q-101 116 -101 305q0 176 75 339q76 166 208 248q134 83 296 83q140 0 247 -68zM943 894q-64 52 -154 52q-103 0 -194 -66
t-144 -198q-53 -133 -53 -264q0 -102 33 -166zM505 162q64 -46 148 -46q149 0 265 144q57 72 92 181q34 108 34 203q0 84 -30 153z" />
    <glyph glyph-name="ugrave" unicode="&#xf9;" 
d="M793 192q-191 -216 -391 -216q-123 0 -199 70q-75 70 -75 173q0 69 34 230l128 613h181l-142 -679q-18 -85 -18 -132q0 -61 37 -94t107 -33q116 1 215 80t144 206q23 56 51 193l96 459h181l-222 -1062h-167zM772 1191l-195 275h220l116 -275h-141z" />
    <glyph glyph-name="uacute" unicode="&#xfa;" 
d="M793 192q-191 -216 -391 -216q-123 0 -199 70q-75 70 -75 173q0 69 34 230l128 613h181l-142 -679q-18 -85 -18 -132q0 -61 37 -94t107 -33q116 1 215 80t144 206q23 56 51 193l96 459h181l-222 -1062h-167zM585 1191l188 275h228l-266 -275h-150z" />
    <glyph glyph-name="ucircumflex" unicode="&#xfb;" 
d="M793 192q-191 -216 -391 -216q-123 0 -199 70q-75 70 -75 173q0 69 34 230l128 613h181l-142 -679q-18 -85 -18 -132q0 -61 37 -94t107 -33q116 1 215 80t144 206q23 56 51 193l96 459h181l-222 -1062h-167zM426 1191l265 275h200l124 -275h-158l-80 178l-165 -178h-186z
" />
    <glyph glyph-name="udieresis" unicode="&#xfc;" 
d="M793 192q-191 -216 -391 -216q-123 0 -199 70q-75 70 -75 173q0 69 34 230l128 613h181l-142 -679q-18 -85 -18 -132q0 -61 37 -94t107 -33q116 1 215 80t144 206q23 56 51 193l96 459h181l-222 -1062h-167zM452 1227l43 205h189l-43 -205h-189zM821 1227l43 205h188
l-42 -205h-189z" />
    <glyph glyph-name="yacute" unicode="&#xfd;" horiz-adv-x="1024" 
d="M0 -410l11 170q54 -16 109 -16t89 25q44 33 96 124l58 104l-177 1065h178l80 -537q26 -170 41 -318l475 855h189l-677 -1203q-98 -176 -174 -233q-77 -57 -175 -57q-63 0 -123 21zM523 1191l188 275h228l-266 -275h-150z" />
    <glyph glyph-name="thorn" unicode="&#xfe;" 
d="M-21 -407l393 1873h181l-112 -531q80 80 152.5 115.5t149.5 35.5q153 0 253 -111q100 -109 100 -316q0 -168 -55 -303q-55 -136 -135 -219q-155 -161 -330 -161q-191 0 -296 194l-120 -577h-181zM337 434q0 -117 17 -165q25 -66 82.5 -105.5t131.5 -39.5q156 0 252 175
t96 359q0 134 -65 208t-160 74q-136 0 -238 -146q-50 -73 -83 -177q-33 -105 -33 -183z" />
    <glyph glyph-name="ydieresis" unicode="&#xff;" horiz-adv-x="1024" 
d="M0 -410l11 170q54 -16 109 -16t89 25q44 33 96 124l58 104l-177 1065h178l80 -537q26 -170 41 -318l475 855h189l-677 -1203q-98 -176 -174 -233q-77 -57 -175 -57q-63 0 -123 21zM408 1227l43 205h189l-43 -205h-189zM777 1227l43 205h188l-42 -205h-189z" />
    <glyph glyph-name="dotlessi" unicode="&#x131;" horiz-adv-x="569" 
d="M125 0l222 1062h181l-222 -1062h-181z" />
    <glyph glyph-name="OE" unicode="&#x152;" horiz-adv-x="2048" 
d="M1023 108q-74 -70 -152.5 -102t-185.5 -32q-231 0 -377 158q-144 159 -144 460q0 254 102 468q103 214 273 322q170 109 354 109q113 0 210.5 -51t167.5 -148l36 174h831l-34 -167h-636l-97 -463h642l-35 -167h-641l-106 -503h710l-35 -166h-906zM357 615q0 -187 38 -281
q38 -92 121 -145q83 -52 185 -52q142 0 256 105q115 106 170 345q70 299 70 417q0 139 -92 231q-91 93 -226 93q-110 0 -207 -63t-170 -172q-61 -91 -97 -202q-48 -151 -48 -276z" />
    <glyph glyph-name="oe" unicode="&#x153;" horiz-adv-x="1933" 
d="M965 183q-90 -104 -191 -155.5t-227 -51.5q-192 0 -305 116t-113 327q0 181 72 339q74 158 202 243q130 85 288 85q123 0 219.5 -52t151.5 -148q94 100 162 138q112 62 243 62q183 0 299 -120q116 -119 116 -319q0 -83 -18 -163h-769q-3 -36 -3 -68q0 -111 59 -202
q59 -90 177 -90q88 0 173 65q84 66 132 171l187 -17q-73 -168 -209 -268q-135 -99 -287 -99q-119 0 -212.5 52t-146.5 155zM306 428q0 -156 65 -234t178 -78q96 0 190 71q94 70 145 212q52 140 52 263q0 111 -61 197q-60 88 -183 88q-83 0 -156.5 -43t-127.5 -124
q-54 -79 -78 -188q-24 -108 -24 -164zM1125 623h581q3 31 3 48q0 135 -67 205q-66 71 -173 71q-100 0 -194 -79q-95 -80 -150 -245z" />
    <glyph glyph-name="Scaron" unicode="&#x160;" horiz-adv-x="1366" 
d="M144 474l192 18l-2 -51q0 -192 168 -265q91 -38 214 -38q176 0 268 77q93 77 93 176q0 70 -49 126q-50 56 -273 152q-176 77 -236 115q-99 65 -146 141.5t-47 174.5q0 115 62.5 205.5t180.5 137.5q120 48 270 48q175 0 299.5 -59t180.5 -161q56 -101 56 -191
q0 -16 -1 -30l-189 -15q0 61 -11 97q-42 125 -178 170q-75 26 -164 26q-160 0 -249 -72q-68 -56 -68 -146q0 -56 29 -98t100 -82q64 -35 247 -115q163 -73 218 -110q166 -110 166 -300q0 -120 -73 -220q-71 -99 -200 -155q-126 -55 -293 -55q-249 0 -407 108
q-156 109 -158 391zM1225 1831l-265 -275h-200l-123 275h158l76 -178l166 178h188z" />
    <glyph glyph-name="scaron" unicode="&#x161;" horiz-adv-x="1024" 
d="M85 363l181 11q0 -82 25.5 -135.5t86.5 -87.5q65 -35 151 -35q120 0 180 48t60 113q0 47 -36 89q-37 42 -181 103q-142 61 -183 87q-135 83 -135 224q0 126 100 216t280 90q200 0 304 -93q104 -91 109 -243l-177 -12q-4 97 -68.5 152.5t-180.5 55.5q-94 0 -146 -43
t-52 -93t45 -88q31 -26 155 -80q209 -90 262 -142q86 -83 86 -202q0 -83 -50.5 -158t-146.5 -119q-99 -45 -234 -45q-185 0 -313 91q-129 92 -122 296zM1032 1466l-265 -275h-200l-123 275h158l76 -178l166 178h188z" />
    <glyph glyph-name="Ydieresis" unicode="&#x178;" horiz-adv-x="1366" 
d="M572 0l118 567l-451 899h210l216 -428q71 -140 138 -300q71 133 202 297l344 431h234l-700 -914l-115 -552h-196zM637 1553l43 205h189l-43 -205h-189zM1006 1553l43 205h188l-42 -205h-189z" />
    <glyph glyph-name="florin" unicode="&#x192;" 
d="M46 -405l35 155q98 -22 152 -22q55 0 83 28q29 29 45 124l177 1042h-201l24 140h201l24 133q22 120 45 165q65 132 239 132q78 0 215 -38l-35 -153q-103 24 -154 24q-56 0 -84 -28q-27 -26 -47 -132l-19 -103h204l-25 -140h-204l-191 -1092q-26 -148 -87 -204
q-61 -57 -173 -57q-91 0 -224 26z" />
    <glyph glyph-name="circumflex" unicode="&#x2c6;" horiz-adv-x="682" 
d="M205 1191l265 275h200l124 -275h-158l-80 178l-165 -178h-186z" />
    <glyph glyph-name="caron" unicode="&#x2c7;" horiz-adv-x="682" 
d="M852 1466l-265 -275h-200l-123 275h158l76 -178l166 178h188z" />
    <glyph glyph-name="breve" unicode="&#x2d8;" horiz-adv-x="682" 
d="M219 1422h118q11 -73 49 -106.5t107 -33.5q71 0 124 36.5t81 103.5h120q-34 -120 -124 -190q-88 -70 -207 -70q-116 0 -189 70t-79 190z" />
    <glyph glyph-name="dotaccent" unicode="&#x2d9;" horiz-adv-x="682" 
d="M398 1209l47 223h223l-48 -223h-222z" />
    <glyph glyph-name="ring" unicode="&#x2da;" horiz-adv-x="682" 
d="M328 1320q0 76 53 129q55 53 129 53q76 0 129 -54q53 -53 53 -128q0 -76 -54 -129q-53 -53 -128 -53q-74 0 -129 53q-53 53 -53 129zM403 1320q0 -46 31 -77t76 -31t76.5 31.5t31.5 76.5q0 43 -32 75t-76 32t-76 -32q-31 -31 -31 -75z" />
    <glyph glyph-name="ogonek" unicode="&#x2db;" horiz-adv-x="682" 
d="M198 27h112q-58 -129 -58 -202q0 -54 31.5 -85.5t83.5 -31.5q68 0 175 43l-25 -120q-114 -56 -212 -56q-87 0 -133.5 47.5t-46.5 135.5q0 116 73 269z" />
    <glyph glyph-name="tilde" unicode="&#x2dc;" horiz-adv-x="682" 
d="M192 1222q33 133 81 178q49 46 122 46q30 0 64 -8q28 -7 110 -43q77 -34 107 -34q25 0 42.5 17.5t28.5 61.5h121q-10 -103 -67 -161q-55 -58 -130 -58q-38 0 -101 26q-138 60 -170 60q-66 0 -83 -85h-125z" />
    <glyph glyph-name="hungarumlaut" unicode="&#x2dd;" horiz-adv-x="682" 
d="M176 1191l186 275h231l-268 -275h-149zM513 1191l183 275h233l-273 -275h-143z" />
    <glyph glyph-name="pi" unicode="&#x3c0;" horiz-adv-x="1124" 
d="M126 914l44 149h1061l-48 -150h-120l-281 -913h-201l280 913l-378 1l-280 -914h-203l282 914h-156z" />
    <glyph glyph-name="endash" unicode="&#x2013;" 
d="M-4 458v145h1139v-145h-1139z" />
    <glyph glyph-name="emdash" unicode="&#x2014;" horiz-adv-x="2048" 
d="M0 458v145h2048v-145h-2048z" />
    <glyph glyph-name="quoteleft" unicode="&#x2018;" horiz-adv-x="455" 
d="M513 1194l-43 -205h-206l38 180q61 297 273 322l-16 -79q-117 -32 -158 -218h112z" />
    <glyph glyph-name="quoteright" unicode="&#x2019;" horiz-adv-x="455" 
d="M318 1255l43 205h206l-37 -180q-35 -162 -106 -236t-168 -86l17 79q118 33 157 218h-112z" />
    <glyph glyph-name="quotesinglbase" unicode="&#x201a;" horiz-adv-x="455" 
d="M47 0l43 205h206l-37 -179q-62 -297 -274 -322l17 79q120 33 157 217h-112z" />
    <glyph glyph-name="quotedblleft" unicode="&#x201c;" horiz-adv-x="682" 
d="M784 1194l-43 -205h-206l38 180q61 297 273 322l-16 -79q-117 -32 -158 -218h112zM465 1194l-43 -205h-206l38 180q61 297 273 322l-16 -79q-117 -32 -158 -218h112z" />
    <glyph glyph-name="quotedblright" unicode="&#x201d;" horiz-adv-x="682" 
d="M276 1255l43 205h206l-37 -180q-35 -162 -106 -236t-168 -86l17 79q118 33 157 218h-112zM606 1255l43 205h206l-38 -180q-61 -296 -273 -322l16 79q117 33 158 218h-112z" />
    <glyph glyph-name="quotedblbase" unicode="&#x201e;" horiz-adv-x="682" 
d="M22 0l43 205h206l-37 -179q-62 -297 -274 -322l17 79q120 33 157 217h-112zM348 0l43 205h206l-37 -179q-62 -297 -274 -322l16 79q119 33 158 217h-112z" />
    <glyph glyph-name="dagger" unicode="&#x2020;" 
d="M331 -349l255 1218h-400l31 150h400l89 427h181l-89 -427h397l-31 -150h-397l-255 -1218h-181z" />
    <glyph glyph-name="daggerdbl" unicode="&#x2021;" 
d="M333 -349l78 373h-400l33 157h399l153 732h-399l33 157h399l79 376h181l-79 -376h395l-33 -157h-395l-153 -732h395l-32 -157h-395l-78 -373h-181z" />
    <glyph glyph-name="bullet" unicode="&#x2022;" horiz-adv-x="717" 
d="M180 718q0 105 74 179q76 74 179 74q105 0 179 -74q75 -73 75 -179q0 -105 -75 -180q-74 -74 -179 -74q-103 0 -179 74q-74 76 -74 180z" />
    <glyph glyph-name="ellipsis" unicode="&#x2026;" horiz-adv-x="2048" 
d="M294 0l43 205h205l-44 -205h-204zM978 0l43 205h205l-43 -205h-205zM1663 0l43 205h204l-43 -205h-204z" />
    <glyph glyph-name="perthousand" unicode="&#x2030;" horiz-adv-x="2048" 
d="M136 997q0 111 45 238q47 129 125 192q79 64 191 64q118 0 185 -69.5t67 -192.5q0 -114 -46 -248q-47 -136 -128 -199q-80 -64 -185 -64q-121 0 -187.5 71.5t-66.5 207.5zM281 994q0 -83 27.5 -119t81.5 -36q91 0 144 116q66 145 66 280q0 67 -29 101.5t-79 34.5
q-120 0 -179 -201q-32 -111 -32 -176zM201 -54l951 1545h152l-953 -1545h-150zM755 225q0 111 45 238q47 129 125 192q79 64 191 64q118 0 185 -70t67 -193q0 -115 -46 -247q-47 -136 -128 -199q-82 -65 -185 -65q-121 0 -187.5 71.5t-66.5 208.5zM900 222q0 -84 27.5 -120
t81.5 -36q91 0 144 117q66 146 66 280q0 67 -29 101t-79 34q-120 0 -179 -200q-32 -111 -32 -176zM1442 225q0 111 45 238q47 129 125 192q79 64 192 64q117 0 184 -70t67 -193q0 -114 -46 -248q-47 -136 -128 -199q-80 -64 -185 -64q-121 0 -187.5 71.5t-66.5 208.5z
M1587 222q0 -156 109 -156q92 0 144 117q66 146 66 280q0 67 -29 101t-79 34q-120 0 -179 -200q-32 -111 -32 -176z" />
    <glyph glyph-name="guilsinglleft" unicode="&#x2039;" horiz-adv-x="682" 
d="M280 526l160 -454h-136l-207 477l397 431h149z" />
    <glyph glyph-name="guilsinglright" unicode="&#x203a;" horiz-adv-x="682" 
d="M395 523l-150 457h145l200 -479l-401 -429h-156z" />
    <glyph glyph-name="fraction" unicode="&#x2044;" horiz-adv-x="342" 
d="M-536 -61l1396 1552h175l-1409 -1552h-162z" />
    <glyph glyph-name="trademark" unicode="&#x2122;" horiz-adv-x="2048" 
d="M544 651v694h-264v121h666v-121h-266v-694h-136zM1037 651v815h200l206 -651l199 651h196v-815h-124v684l-210 -684h-123l-219 694v-694h-125z" />
    <glyph glyph-name="Omega" unicode="&#x2126;" horiz-adv-x="1573" 
d="M556 160q-109 68 -165 130q-181 200 -181 512q0 198 79 360q79 164 231 253q151 88 348 88q336 0 516 -254q131 -187 131 -448q0 -312 -195 -520q-51 -56 -149 -121l364 6v-166h-575v177q82 42 124 78q107 91 165 229.5t58 292.5q0 136 -50 277q-49 140 -150 213
q-100 73 -243 73q-191 0 -296 -120q-146 -170 -146 -440q0 -218 91 -373q92 -156 251 -227v-180h-577v168z" />
    <glyph glyph-name="partialdiff" unicode="&#x2202;" horiz-adv-x="1012" 
d="M426 1138l-135 60q71 158 168 225q98 68 192 68q76 0 137 -40q62 -39 93 -90q92 -153 92 -435q0 -288 -87 -513q-86 -224 -233 -331q-148 -107 -289 -107q-138 0 -223 91t-85 256q0 226 153 387q197 207 649 215q-4 167 -24 256q-19 88 -68 135q-48 48 -113 48
q-62 0 -121 -50q-60 -51 -106 -175zM854 796q-243 -13 -358 -68q-114 -55 -187 -177q-73 -121 -73 -248q0 -83 51 -137t119 -54q75 0 160 55q240 155 288 629z" />
    <glyph glyph-name="product" unicode="&#x220f;" horiz-adv-x="1686" 
d="M241 1491h1362v-1922h-191v1748h-978v-1748h-193v1922z" />
    <glyph glyph-name="summation" unicode="&#x2211;" horiz-adv-x="1460" 
d="M139 1491h1237v-164h-988l607 -775l-649 -822h1040v-161h-1264v187l620 788l-603 772v175z" />
    <glyph glyph-name="radical" unicode="&#x221a;" horiz-adv-x="1124" 
d="M1050 1869h74l-312 -1947l-496 1021l-198 -91l-34 64l301 151l405 -823z" />
    <glyph glyph-name="infinity" unicode="&#x221e;" horiz-adv-x="1460" 
d="M689 812q104 131 164 174q79 58 169 58q105 0 196 -76q92 -77 92 -245q0 -119 -34 -186q-35 -68 -106 -108q-73 -41 -148 -41q-90 0 -169 57q-61 45 -164 175q-137 -171 -289 -171q-101 0 -174 76q-72 77 -72 191t72 190q74 77 174 77q152 0 289 -171zM758 717
q88 -136 159 -185q46 -33 103 -33q76 0 127 56q52 55 52 158q0 106 -53 162t-130 56q-49 0 -92 -28q-58 -38 -166 -186zM620 716q-78 98 -128 128q-49 29 -92 29q-59 0 -97 -41.5t-38 -112.5t40 -114q41 -42 97 -42q101 0 218 153z" />
    <glyph glyph-name="integral" unicode="&#x222b;" horiz-adv-x="561" 
d="M201 948l17 531q9 152 50 254q26 62 72.5 96t94.5 34q50 0 87 -34q38 -33 38 -73q0 -47 -26 -75.5t-66 -28.5q-36 0 -76 36q-23 20 -40 20q-40 0 -40 -64q0 -41 9 -145q37 -404 37 -665q0 -83 -16 -588q-8 -296 -90 -399q-54 -67 -134 -67q-52 0 -85 34t-33 87
q0 45 25.5 72t64.5 27q40 0 69 -32t49 -32q39 0 39 61q0 42 -9 120q-37 311 -37 831z" />
    <glyph glyph-name="approxequal" unicode="&#x2248;" horiz-adv-x="1124" 
d="M124 738v205q106 120 278 120q59 0 125 -17q60 -15 189 -70q70 -30 103 -39q37 -8 70 -8q65 0 134 39q69 38 124 98v-212q-64 -60 -129.5 -87t-147.5 -27q-62 0 -114 13q-50 12 -173 67q-119 54 -198 54q-65 0 -121 -28q-57 -27 -140 -108zM124 376v205q106 120 278 120
q59 0 125 -17q60 -15 189 -70q73 -30 103 -38q35 -9 70 -9q65 0 134 39q69 38 124 98v-212q-64 -60 -129.5 -87t-147.5 -27q-58 0 -114 14q-50 12 -173 67q-120 53 -198 53q-65 0 -121 -28q-57 -27 -140 -108z" />
    <glyph glyph-name="notequal" unicode="&#x2260;" horiz-adv-x="1124" 
d="M541 417l-194 -445h-136l195 445h-282v168h356l122 277h-478v168h551l196 444h134l-195 -444h282v-168h-356l-121 -277h477v-168h-551z" />
    <glyph glyph-name="lessequal" unicode="&#x2264;" horiz-adv-x="1124" 
d="M124 762v168l971 410v-180l-770 -315l770 -319v-179zM1093 106h-968v167h968v-167z" />
    <glyph glyph-name="greaterequal" unicode="&#x2265;" horiz-adv-x="1124" 
d="M1095 762l-971 -415v179l769 319l-769 315v180l971 -410v-168zM1093 106h-968v167h968v-167z" />
    <glyph glyph-name="lozenge" unicode="&#x25ca;" horiz-adv-x="1012" 
d="M622 1422l418 -713l-418 -709h-111l-391 709l391 713h111zM568 1325l-340 -616l340 -615l359 615z" />
    <glyph glyph-name="CR" unicode="&#xe000;" horiz-adv-x="569" 
 />
    <glyph glyph-name="NULL" unicode="&#xe001;" horiz-adv-x="0" 
 />
    <glyph glyph-name="increment" unicode="&#xe002;" horiz-adv-x="1253" 
d="M1226 0h-1200l628 1387zM990 82l-399 967l-440 -967h839z" />
    </font>
</defs>
</svg>
